混ぜるな危険
筋肉少女帯

ADVANCED

Level: 6
BPM: 178
Notes: 382

1
口口口口 |----|
口口口口 |----|
口口口口 |----|
口口口口 |----|
2
口口口口 |----|
口口口口 |----|
口口口口 |----|
口口口口 |----|
3
口口口口 |----|
口口口口 |----|
口口口口 |----|
口口口口 |----|
4
口①口① |①---|
②口②口 |--②-|
口③口③ |----|
口口口口 |③---|
5
③口口③ |--①-|
口②②口 |----|
口口口口 |②-③-|
①口①口 |----|
6
口③③口 |①-②-|
口口口口 |--③-|
口口①口 |----|
口②口口 |----|
7
③口口③ |①-②-|
口口口口 |--③-|
口①口口 |----|
口口②口 |----|
8
口口口口 |①-②-|
⑥②①⑤ |③-④-|
⑧④③⑦ |⑤-⑥-|
口口口口 |⑦-⑧-|
9
③口口③ |①-②-|
口①①口 |--③-|
口口口口 |----|
口②②口 |----|
10
口③③口 |①-②-|
口口口口 |--③-|
口①口口 |----|
口口②口 |----|
11
③口口③ |①-②-|
口口口口 |--③-|
口口①口 |----|
口②口口 |----|
12
口②①口 |①-②-|
口④③口 |③-④-|
口⑥⑤口 |⑤-⑥-|
口⑧⑦口 |⑦-⑧-|
13
④⑤⑤① |①-②-|
口③②口 |③-④-|
口口口口 |----|
口口口口 |⑤---|
14
口口口口 |①---|
③口②① |--②-|
口③①② |----|
口口口口 |③---|
15
口②②口 |--①-|
口①口口 |----|
①口口口 |②---|
口③③口 |③---|
16
口口口口 |①---|
口③①② |--②-|
③口②① |----|
口口口口 |③---|
17
②口口② |--①-|
①口口口 |----|
口①口口 |②---|
③口口③ |③---|
18
口③口口 |--①-|
口口口口 |②---|
④⑤②口 |③---|
口口①口 |④-⑤-|
19
口口口口 |①-②-|
④③②① |③-④-|
口口口口
口口口口

口口⑥⑤
口口口⑦
口口口口 |--⑤-|
口口口口 |⑥-⑦-|
20
①②口口 |--①-|
③⑤④口 |②-③-|
口⑦⑥口 |④-⑤-|
口口口口 |⑥-⑦-|
21
④口口④ |①-②-|
口口口口 |③-④-|
③口口③ |----|
口②①口 |----|
22
口口③口 |--①-|
口口口口 |②---|
口②④口 |③---|
口①口口 |④---|
23
口口口口 |①-②-|
①②③④ |③-④-|
口口口口
口口口口

⑤⑥口口
⑦口口口
口口口口 |--⑤-|
口口口口 |⑥-⑦-|
24
口口①口 |①-②-|
口③②⑦ |③-④-|
口④口口 |⑤---|
⑥口⑤口 |⑥-⑦-|
25
口④④口 |①-②-|
③②①口 |③-④-|
口口口口 |----|
口口口口 |----|
26
口④⑥⑤ |--①-|
口口口口 |②-③-|
口口③口 |④---|
口②①口 |⑤-⑥-|
27
口口口口 |①-②-|
④③②① |③-④-|
口⑥⑤口 |--⑤-|
口口⑦口 |⑥-⑦-|
28
口④⑤③ |--①-|
口⑥⑦② |②-③-|
口口口① |④-⑤-|
口口口口 |⑥-⑦-|
29
口口口口 |①-②-|
④口口④ |③-④-|
口①②口 |----|
口③口口 |----|
30
口④③口 |--①-|
口⑥⑤口 |②---|
口②口口 |③-④-|
口①口口 |⑤-⑥-|
31
口口口口 |①-②-|
口口口⑤ |③-④-|
口②①⑥ |--⑤-|
口④③⑦ |⑥-⑦-|
32
⑥⑤④③ |--①-|
①①口口 |--②-|
口口口口 |③-④-|
②②口口 |⑤-⑥-|
33
口口口口 |①-②-|
④①①④ |③-④-|
口②②口 |----|
口③③口 |----|
34
②②①① |①---|
口③③口 |----|
口④④口 |②---|
口口口口 |③-④-|
35
口口口口 |----|
口口口口 |----|
口口口口 |----|
口口口口 |----|
36
口④口⑤ |①-②-|
⑥口③口 |③-④-|
口②口⑦ |⑤-⑥-|
⑧口①口 |⑦-⑧-|
37
口口口口 |----|
口口口口 |----|
口口口口 |----|
口口口口 |----|
38
口④口⑤ |--①-|
口③⑥口 |②-③-|
口口②口 |④---|
口口①口 |⑤-⑥-|
39
①口①口 |①---|
③④⑤⑥ |②---|
②口②口 |③-④-|
口口口口 |⑤-⑥-|
40
口①①口 |①---|
③口口③ |--②-|
②口口② |----|
口口口口 |③---|
41
口⑤⑤口 |--①-|
口④④口 |----|
②③③② |②-③-|
口①①口 |④-⑤-|
42
①口口① |①---|
③口口③ |--②-|
②口口② |----|
口口口口 |③---|
43
口口口口 |--①-|
③③③③ |----|
口口口口 |②-③-|
①②②① |----|
44
③③口口 |①-②-|
口口口口 |--③-|
口口②① |----|
口口口口 |----|
45
口口③③ |①-②-|
口口口口 |--③-|
①②口口 |----|
口口口口 |----|
46
口口口口 |①-②-|
⑥②①⑤ |③-④-|
⑧④③⑦ |⑤-⑥-|
口口口口 |⑦-⑧-|
47
口口口口 |①-②-|
口③③口 |--③-|
口口口口 |----|
口②①口 |----|
48
口口口口 |①-②-|
③③口口 |--③-|
口口口口 |----|
口口②① |----|
49
口口口口 |①-②-|
口口③③ |--③-|
口口口口 |----|
①②口口 |----|
50
口口口口 |①-②-|
⑧⑦⑥⑤ |③-④-|
口④③口 |⑤-⑥-|
口②①口 |⑦-⑧-|
51
口口口口 |----|
口口口口 |----|
口口口口 |----|
口口口口 |----|
52
口口口口 |①-②-|
③③口口 |--③-|
口口①① |----|
口口②② |----|
53
口口口口 |①-②-|
口口③③ |--③-|
①①口口 |----|
②②口口 |----|
54
①③⑤⑦ |①-②-|
②④⑥⑧ |③-④-|
口口口口 |⑤-⑥-|
口口口口 |⑦-⑧-|
55
口③③口 |①-②-|
口口口口 |--③-|
①口口② |----|
口口口口 |----|
56
口口口口 |①-②-|
口口③③ |--③-|
①①口口 |----|
②②口口 |----|
57
口口口口 |①-②-|
③③口口 |--③-|
口口①① |----|
口口②② |----|
58
⑦⑤③① |①-②-|
口口口口 |③-④-|
⑧⑥④② |⑤-⑥-|
口口口口 |⑦-⑧-|
59
⑥口口⑥ |①-②-|
④③②① |③-④-|
口口口口 |⑤---|
口⑤⑤口 |⑥---|
60
口口口口 |①---|
③口②① |--②-|
口③①② |----|
口口口口 |③---|
61
口②②口 |--①-|
口①口口 |----|
①口口口 |②---|
口③③口 |③---|
62
口口口口 |①---|
口③①② |--②-|
③口②① |----|
口口口口 |③---|
63
②口口② |--①-|
①口口口 |----|
口①口口 |②---|
③口口③ |③---|
64
口口口口 |①---|
口③①② |--②-|
③口②① |----|
口口口口 |③---|
65
口②②口 |--①-|
①口口口 |----|
口①口口 |②---|
口③③口 |③---|
66
③口口口 |①---|
①口口② |--②-|
②口口① |----|
口口口③ |③---|
67
口②③① |--①-|
口口口口 |----|
口口口口 |②---|
①③②口 |③---|
68
口口口口 |----|
口①①口 |----|
口①①口 |①---|
口口口口 |----|

不確定度: 0

最終更新:2016年07月27日 16:46