変じゃない!!
good-cool ft. すわひでお

BASIC

Level: 3
BPM: 116
Notes: 388

1
口口口口 |----|
口口口口 |----|
口口口口 |----|
口口口口 |----|
2
②口口② |①-②-|
口口口口 |----|
口口口口
口口①口

③口口③
口口口口
口口口口 |----|
口口口口 |③---|
3
口口口口 |①---|
口①口口 |----|
②口口② |----|
口口口口 |②---|
4
②口口② |①-②-|
口口口口 |----|
口口口口 |----|
口①口口 |----|
5
④口口④ |①---|
口③③口 |----|
①②②① |--②-|
口口口口 |③-④-|
6
口口口口 |--①-|
①②④③ |②---|
⑤口口口 |③-④-|
口口口口 |--⑤-|
7
⑤口口⑤ |①---|
口口口口 |②-③-|
口①③② |④---|
口④④口 |⑤---|
8
口口口口 |--①-|
①②④③ |②---|
⑤口口口 |③-④-|
口口口口 |--⑤-|
9
⑤口口⑤ |①---|
口口口口 |②-③-|
口①③② |④---|
口④④口 |⑤---|
10
口口口口 |--①-|
⑤①④口 |②---|
口②③口 |③-④-|
口口口口 |--⑤-|
11
⑤口口⑤ |①---|
口口口③ |②-③-|
①口口② |④---|
口④④口 |⑤---|
12
口口口口 |--①-|
口④①⑤ |②---|
口③②口 |③-④-|
口口口口 |--⑤-|
13
⑤口口⑤ |①---|
③口口口 |②-③-|
②口口① |④---|
口④④口 |⑤---|
14
④②④② |①---|
口口口口 |②---|
口③①口 |③---|
口口口口 |④---|
15
口口口口 |①-②-|
口口②① |③-④-|
④③口口
口口口口

口口口口
⑥口口⑤
口口口口 |⑤---|
⑥口口⑤ |⑥---|
16
口口口口 |①-②-|
④⑧⑥② |③-④-|
③⑦⑤① |⑤-⑥-|
口口口口 |⑦-⑧-|
17
③②①口 |--①-|
⑤口口④ |②-③-|
口口口口 |④---|
⑤口口④ |⑤---|
18
④②④② |①---|
口口口口 |②---|
口③①口 |③---|
口口口口 |④---|
19
口口口口 |①-②-|
①②口口 |③-④-|
口口③④
口口口口

口口口口
⑤口口⑥
口口口口 |⑤---|
⑤口口⑥ |⑥---|
20
口口口口 |①-②-|
②⑥⑧④ |③-④-|
①⑤⑦③ |⑤-⑥-|
口口口口 |⑦-⑧-|
21
②③③① |①---|
口④④口 |②---|
②⑤⑤① |③-④-|
口⑥⑥口 |⑤-⑥-|
22
口口口口 |①---|
口口口口 |----|
口③②口 |②-③-|
①⑤④① |④-⑤-|
23
口④口④ |--①-|
口①②口 |②---|
口口③口 |--③-|
口口口口 |④---|
24
口口口口 |①-②-|
口口口口 |③-④-|
⑤⑥⑦⑧ |⑤-⑥-|
④③②① |⑦-⑧-|
25
④口口④ |--①-|
口②①口 |②---|
口③③口 |③---|
口口口口 |④---|
26
⑧口口⑦ |①-②-|
⑥口口⑤ |③-④-|
④口口③ |⑤-⑥-|
②口口① |⑦-⑧-|
27
口口口口 |①-②-|
③口口③ |③---|
口①①口
口②②口

⑤口⑤口
口口口口
口④口口 |--④-|
口口口口 |⑤---|
28
⑧口口⑦ |①-②-|
⑥口口⑤ |③-④-|
④口口③ |⑤-⑥-|
②口口① |⑦-⑧-|
29
⑤⑤④④ |①-②③|
⑤口口④ |----|
②③③② |④---|
口①①口 |⑤---|
30
⑥④⑥④ |--①-|
口口①口 |②-③-|
口②口口 |④---|
口⑤③口 |⑤-⑥-|
31
③口口③ |--①-|
口①口① |②---|
口口②口 |----|
口口口口 |③---|
32
口口①口 |①-②-|
口②口口 |③-④-|
口口③口
口④口口

⑤⑦⑤⑦
口口口口
口口口口 |⑤---|
口口⑥口 |⑥-⑦-|
33
④口口④ |--①-|
①口①口 |②-③-|
②口②口 |----|
③口③口 |④---|
34
⑧①⑧口 |①-②-|
口⑦②口 |③-④-|
口③⑥口 |⑤-⑥-|
口⑤④口 |⑦-⑧-|
35
⑤口口口 |--①-|
④口口口 |②---|
③①口① |--③-|
口口②口 |④-⑤-|
36
口口口① |--①-|
口口口② |②-③-|
口口口③
口口口口

口口口口
④口口⑤
口口口口 |----|
④口口⑤ |④-⑤-|
37
③③③③ |--①-|
口口口口 |②---|
口②①口 |----|
口口口口 |③---|
38
口④口③ |--①-|
⑤①⑤口 |②---|
②口①口 |③---|
口②口口 |④-⑤-|
39
口口口① |--①-|
口④口② |②-③-|
⑤口④③ |④-⑤-|
口⑤口口 |----|
40
口④口③ |--①-|
⑤①⑤口 |②---|
②口①口 |③---|
口②口口 |④-⑤-|
41
④口④① |--①-|
⑥口⑥② |②-③-|
⑤口⑤③ |④-⑤-|
口口口口 |⑥---|
42
口④口③ |--①-|
⑤①⑤口 |②---|
②口①口 |③---|
口②口口 |④-⑤-|
43
口口口① |--①-|
口④口② |②-③-|
⑤口④③ |④-⑤-|
口⑤口口 |----|
44
口④口③ |--①-|
⑤①⑤口 |②---|
②口①口 |③---|
口②口口 |④-⑤-|
45
④口④① |--①-|
⑥口⑥② |②-③-|
⑤口⑤③ |④-⑤-|
口口口口 |⑥---|
46
②口②① |①---|
⑥⑤④③ |②---|
口口口口 |③-④-|
口口口口 |⑤-⑥-|
47
口③②① |①--②|
⑤⑤④④ |--③-|
口③②① |④---|
口口口口 |⑤---|
48
口口口口 |①---|
口口口口 |②---|
⑥⑤④③ |③-④-|
②口②① |⑤-⑥-|
49
口口口口 |①--②|
口③②① |--③-|
⑤⑤④④ |④---|
口③②① |⑤---|
50
①②口② |①---|
③④⑤⑥ |②---|
口口口口 |③-④-|
口口口口 |⑤-⑥-|
51
①②③口 |①--②|
④④⑤⑤ |--③-|
①②③口 |④---|
口口口口 |⑤---|
52
口口口口 |①---|
口口口口 |②---|
③④⑤⑥ |③-④-|
①②口② |⑤-⑥-|
53
口口口口 |①--②|
①②③口 |--③-|
口口口口
①②③口

④⑤⑥⑦
⑨口口⑨
口⑧⑧口 |④⑤⑥⑦|
⑨口口⑨ |-⑧-⑨|

不確定度: 0

最終更新:2016年07月27日 16:44