Silent Story
発熱巫女~ず

BASIC

Level: 2
BPM: 126
Notes: 175

1
口口口口 |----|
口口口口 |----|
口口口口 |----|
口口口口 |----|
2
口口口口 |①---|
口口②口 |--②-|
口口①口 |----|
口口口口 |----|
3
口口口口 |①---|
口②口口 |--②-|
口①口口 |----|
口口口口 |----|
4
口口口口 |①---|
口口②口 |--②-|
口口①口
口口口口

口口口口
口③④口
口口口口 |----|
口口口口 |③--④|
5
口口口口 |----|
口口口口 |----|
口口口口 |----|
口口口口 |----|
6
口口口口 |①---|
口②口口 |--②-|
口①口口 |----|
口口口口 |----|
7
口口口口 |①---|
口口②口 |--②-|
口口①口 |----|
口口口口 |----|
8
口口口口 |①---|
口②口口 |--②-|
口①口口
口口口口

口口口口
口④③口
口口口口 |----|
口口口口 |③--④|
9
口口口口 |----|
口口口口 |----|
口口口口 |----|
口口口口 |----|
10
口口口口 |①---|
口①②口 |----|
口①口口 |②---|
口口口口 |----|
11
口口口口 |①---|
口口口① |----|
口口口② |②---|
口口口口 |----|
12
口口口口 |①---|
口②①口 |----|
口口①口 |②---|
口口口口 |----|
13
口口口口 |①---|
①口口口 |----|
②口口口 |②---|
口口口口 |----|
14
口口口口 |①---|
口①②口 |----|
口①口口 |②---|
口口口口 |----|
15
口口口口 |①---|
口口口① |----|
口口口② |②---|
口口口口 |----|
16
口口口口 |①---|
口②①口 |----|
口口①口 |②---|
口口口口 |----|
17
口口口口 |①---|
①口口口 |----|
②口口口 |②---|
口口口口 |----|
18
口口口口 |①---|
口口口口 |----|
口口②口 |②---|
口①①口 |----|
19
口口口口 |①---|
口口②口 |----|
口①口口 |②---|
口口口口 |----|
20
口①①口 |①---|
口②口口 |----|
口口口口 |②---|
口口口口 |----|
21
口口口口 |①---|
口口①口 |----|
口②口口 |②---|
口口口口 |----|
22
口口口口 |①---|
口口口口 |----|
口口②口 |②---|
口①①口 |----|
23
口口口口 |①---|
口口②口 |----|
口①口口 |②---|
口口口口 |----|
24
口①①口 |①---|
口②口口 |----|
口口口口 |②---|
口口口口 |----|
25
口口口口 |①---|
口口①口 |----|
口②口口 |②---|
口口口口 |----|
26
口口口口 |①---|
①口口① |----|
②口口② |②---|
口口口口 |----|
27
口④口口 |①---|
口口③口 |②---|
口②口口 |③---|
口口①口 |④---|
28
口口口口 |----|
①口口① |①---|
口口口口 |----|
口口口口 |----|
29
口口口口 |①---|
口口口口 |②---|
①②③④ |③---|
口口口口 |④---|
30
口口口口 |①---|
①口口① |----|
②口口② |②---|
口口口口 |----|
31
口口④口 |①---|
口③口口 |②---|
口口②口 |③---|
口①口口 |④---|
32
口①口口 |①---|
口口②口 |②---|
口③口口 |③---|
口口④口 |④---|
33
口口口口 |----|
口口口口 |①---|
①②③口 |②---|
口口口口 |③---|
34
口口口口 |①---|
①口③① |----|
口②口口 |----|
口口口口 |②-③-|
35
口口口口 |----|
口口口口 |----|
口口口口 |----|
口口口口 |----|
36
口口口口 |①---|
①③口口 |②---|
②④口口 |③---|
口口口口 |④---|
37
口口口口 |①---|
口口①① |----|
口口②② |②---|
口口口口 |----|
38
口口口口 |①---|
口口口口 |----|
口口口口 |②---|
②②①① |----|
39
口口口口 |①---|
②②口口 |----|
①①口口 |②---|
口口口口 |----|
40
口口口口 |①---|
口口③① |②---|
口口④② |③---|
口口口口 |④---|
41
口口口口 |①---|
①①口口 |----|
②②口口 |②---|
口口口口 |----|
42
口口口口 |①---|
口口口口 |----|
口口口口 |②---|
①①②② |----|
43
口口口口 |①---|
口口②② |----|
口口①① |②---|
口口口口 |----|
44
口口口口 |①---|
①③口口 |②---|
②④口口 |③---|
口口口口 |④---|
45
口口口口 |①---|
口口①① |----|
口口②② |②---|
口口口口 |----|
46
口口口口 |①---|
口口口口 |----|
口口口口 |②---|
②②①① |----|
47
口口口口 |①---|
②②口口 |----|
①①口口 |②---|
口口口口 |----|
48
口口口口 |①---|
口口③① |②---|
口口④② |③---|
口口口口 |④---|
49
口口口口 |①---|
①①口口 |----|
②②口口 |②---|
口口口口 |----|
50
口口口口 |①---|
口口口口 |----|
口口口口 |②---|
①①②② |----|
51
口口口口 |①---|
口口②② |----|
口口①① |②---|
口口口口 |----|
52
①②口口 |①---|
口口口口 |----|
口口口口 |②---|
口口口口 |----|
53
口口①② |①---|
口口口口 |----|
口口口口 |②---|
口口口口 |----|
54
口口口口 |①---|
口口②① |----|
口口口口 |②---|
口口口口 |----|
55
口口口口 |①---|
②①口口 |----|
口口口口 |②---|
口口口口 |----|
56
口口口口 |①---|
口口口口 |----|
①②口口 |②---|
口口口口 |----|
57
口口口口 |①---|
口口口口 |----|
口口①② |②---|
口口口口 |----|
58
口口口口 |①---|
口口口口 |----|
口口口口 |②---|
口口②① |----|
59
口口口口 |①---|
口口口口 |----|
口口口口 |②---|
②①口口 |----|
60
口口口口 |①---|
口口口口 |----|
口①①口 |----|
口口口口 |----|
61
口口口口 |----|
口口口口 |----|
口口口口 |----|
口口口口 |----|
62
口口口口 |①---|
口口口口 |----|
口口①口 |----|
口口口口 |----|
63
口口口口 |①---|
口口口口 |----|
口①口口 |----|
口口口口 |----|
64
口口口口 |----|
口①①口 |①---|
口口口口 |----|
口口口口 |----|

不確定度: 0

最終更新:2016年07月27日 16:39