Silent Story
発熱巫女~ず

ADVANCED

Level: 6
BPM: 126
Notes: 377

1
口口口口 |----|
口口口口 |----|
口①口口 |----|
口口口口 |--①-|
2
口口口口 |①--②|
口③②① |--③-|
口口④口 |----|
口口口口 |--④-|
3
口口口口 |①--②|
①②③口 |--③-|
口④口口 |----|
口口口口 |--④-|
4
口口口口 |①--②|
口③②① |--③-|
口口口口
口口口口

口④④口
口⑤⑤口
口口口口 |----|
口口口口 |④--⑤|
5
口口口口 |----|
口口口口 |----|
②口口① |--①-|
口口口口 |-②--|
6
口口口口 |①--②|
口③②① |--③-|
口口④口 |----|
口口口口 |--④-|
7
口口口口 |①--②|
①②③口 |--③-|
口④口口 |----|
口口口口 |--④-|
8
口口口口 |①--②|
口③②① |--③-|
口口口口
口口口口

口④④口
口⑤⑤口
口口口口 |----|
口口口口 |④--⑤|
9
口口口口 |----|
口口口口 |----|
口口口口 |----|
口口口口 |----|
10
口口⑥口 |--①-|
口口⑤口 |---②|
口口④口 |③-④-|
①②③① |⑤-⑥-|
11
①口口口 |①-②-|
口口口② |③-④-|
③⑤⑥口 |--⑤-|
口口口④ |⑥---|
12
口⑥口口 |--①-|
口⑤口口 |---②|
口④口口 |③-④-|
①③②① |⑤-⑥-|
13
口口①① |--①-|
口口②② |②---|
口口口口 |----|
口口口口 |----|
14
口口⑥口 |--①-|
口口⑤口 |---②|
口口④口 |③-④-|
①②③① |⑤-⑥-|
15
①口口口 |①-②-|
口口口② |③-④-|
③⑤口口 |--⑤-|
口口⑥④ |--⑥-|
16
口④口口 |--①-|
②⑤③口 |----|
口口口口 |②-③④|
①口口① |--⑤-|
17
口⑤④口 |①-②③|
口口③口 |-④-⑤|
口②口① |----|
口口口口 |----|
18
口口⑥口 |--①-|
口口⑤口 |---②|
口口④口 |③-④-|
①②③① |⑤-⑥-|
19
①口口口 |①-②-|
口口口② |③-④-|
③⑤⑥口 |--⑤-|
口口口④ |⑥---|
20
口⑥口口 |--①-|
口⑤口口 |---②|
口④口口 |③-④-|
①③②① |⑤-⑥-|
21
口口①口 |①-②-|
④口②⑤ |③-④⑤|
口口③口 |----|
口口口口 |----|
22
口口⑥口 |--①-|
口口⑤口 |---②|
口口④口 |③-④-|
①②③① |⑤-⑥-|
23
①口口口 |①-②-|
口⑦⑥② |③-④-|
③⑤口口 |--⑤-|
口口口④ |⑥⑦--|
24
③口口② |①---|
口口④口 |②---|
口⑤口口 |③--④|
①口口① |--⑤-|
25
⑥④③② |①-②-|
⑥口⑤① |③-④⑤|
口口口口 |----|
口口口口 |--⑥-|
26
口口口① |①---|
口口口① |②-③-|
②④口③ |----|
②口口③ |--④-|
27
④口③⑤ |①-②③|
口②⑥口 |--④-|
口⑦①口 |⑤-⑥-|
⑧口⑨口 |⑦-⑧⑨|
28
①口口口 |----|
①口②口 |①-②③|
口③口口 |----|
口口口④ |--④-|
29
口口口① |①-②-|
②②口口 |--③-|
③③口口
口口口口

口口口⑤
口口口口
口口口口 |--④-|
④④口口 |--⑤-|
30
②口口口 |①---|
口口口口 |②-③-|
③口口① |----|
口口④口 |--④-|
31
⑦⑥⑤④ |①-②③|
⑧③口口 |--④-|
口口②口 |⑤-⑥-|
口①口口 |⑦-⑧-|
32
口⑤④口 |①--②|
口⑦⑥口 |--③-|
②③③① |④-⑤-|
口②①口 |⑥-⑦-|
33
口⑤⑤口 |----|
口④④③ |①-②-|
②口口口 |③---|
口口口① |④-⑤-|
34
口口口口 |----|
口①①口 |----|
口口口口 |----|
口②②口 |①-②-|
35
口口口口 |----|
口③口口 |----|
口口②口 |--①-|
口①①口 |②③--|
36
口②③① |①-②③|
口⑩⑨① |--④⑤|
⑥⑧⑦口 |⑥-⑦⑧|
⑥④⑤口 |--⑨⑩|
37
①口口① |----|
口⑥②口 |①---|
口③⑤口 |②-③-|
口口④口 |④-⑤⑥|
38
②口口① |--①-|
口口④口 |②---|
口③口口 |----|
口口口口 |--③④|
39
①口口② |--①-|
口③⑦口 |②-③④|
口⑥④口 |--⑤-|
口⑤⑤口 |⑥⑦--|
40
①③②口 |①-②③|
①⑨口口 |--④⑤|
⑦口⑧⑥ |⑥--⑦|
⑦⑤④⑥ |--⑧⑨|
41
口②①口 |----|
口口口⑤ |①-②-|
④口口口 |--③-|
口口口③ |④-⑤-|
42
①口口② |①-②-|
③口口口 |③-④-|
口口口④ |--⑤-|
⑥⑤⑤⑥ |--⑥-|
43
口口口口 |--①-|
口②②口 |②---|
口①①口
口口口口

口口口口
口⑤口口
口口④口 |--③-|
口③③口 |④⑤--|
44
口②③① |①-②③|
口⑩⑨① |--④⑤|
⑥⑧⑦口 |⑥-⑦⑧|
⑥④⑤口 |--⑨⑩|
45
①口口① |----|
口⑥②口 |①---|
口③⑤口 |②-③-|
口口④口 |④-⑤⑥|
46
②口口① |--①-|
口口④口 |②---|
口③口口 |----|
口口口口 |--③④|
47
①口口② |--①-|
口③⑦口 |②-③④|
口⑥④口 |--⑤-|
口⑤⑤口 |⑥⑦--|
48
①③②口 |①-②③|
①⑨口口 |--④⑤|
⑦口⑧⑥ |⑥--⑦|
⑦⑤④⑥ |--⑧⑨|
49
口②①口 |----|
口口口⑤ |①-②-|
④口口口 |--③-|
口口口③ |④-⑤-|
50
①口口② |①-②-|
③口口口 |③-④-|
口口口④ |--⑤-|
⑥⑤⑤⑥ |--⑥-|
51
口口口口 |--①-|
口②②口 |②---|
口①①口
口口口口

口口口口
口口口口
口口③口 |----|
口口口口 |--③-|
52
口②①口 |①-②-|
口口⑥⑤ |--③-|
口口口口 |--④-|
口④③口 |⑤-⑥-|
53
口口口口 |--①-|
口口口口 |②-③-|
①②③口 |--④-|
口④④口 |----|
54
口③③口 |①-②-|
②④口① |--③-|
口口⑤口 |--④-|
口⑥口口 |⑤-⑥-|
55
口口口口 |①--②|
口②③① |--③④|
口④口口
口口口口

口口口⑤
口⑥口口
口口⑦口 |----|
口口口口 |⑤-⑥⑦|
56
口口口口 |----|
口⑤⑥口 |--①-|
口②口④ |②-③-|
①口③口 |④-⑤⑥|
57
①②③④ |----|
口口口⑤ |--①-|
口口口口 |②-③-|
口口口口 |④-⑤-|
58
口口口口 |①--②|
⑤③④口 |--③④|
①口②口 |----|
口口口口 |--⑤-|
59
口口口口 |①--②|
口④③口 |--③④|
口②口①
口口口口

口口口口
口口⑦口
口⑥口口 |----|
口⑤⑤口 |⑤-⑥⑦|
60
口口口口 |----|
口口口口 |----|
口口口口 |----|
口口口口 |----|
61
口口口口 |----|
口口口口 |----|
口口口口 |----|
口口口口 |----|
62
口口口口 |----|
口口口口 |----|
口口口口 |----|
口口口口 |----|
63
口口口口 |①---|
口口口口 |----|
口②①口 |②---|
口口口口 |----|
64
口口口口 |----|
口①①口 |①---|
口口口口 |----|
口口口口 |----|

不確定度: 0

最終更新:2016年07月27日 16:39