Scream out!
A-One

BASIC

Level: 3
BPM: 166
Notes: 219

1
口口口口 |----|
口口口口 |----|
口口口口 |----|
口口口口 |----|
2
口口口口 |①---|
口①②口 |----|
口口口口 |②---|
口口口口 |----|
3
口口口口 |①---|
口口口口 |----|
口①②口 |②---|
口口口口 |----|
4
口口口口 |①---|
①②口口 |----|
口口口口 |②---|
口口口口 |----|
5
口口口口 |①---|
口口①② |----|
口口口口 |②---|
口口口口 |----|
6
口口口口 |①---|
口②②口 |----|
口①①口 |②---|
口口口口 |----|
7
口口口口 |①---|
口②②口 |----|
口①①口 |②---|
口口口口 |----|
8
口①①口 |①---|
②③③② |----|
口③③口 |②---|
口口口口 |--③-|
9
口口口口 |----|
①口口② |----|
口口口口 |①---|
口口口口 |②---|
10
口口口口 |①---|
口口口口 |----|
口①口口 |----|
口口口口 |----|
11
口口①口 |①---|
口口①口 |----|
口口口口 |----|
口口口口 |----|
12
口①口口 |①---|
口①口口 |----|
口口口口 |----|
口口口口 |----|
13
口口口口 |①---|
②口口② |----|
①口口① |②---|
口口口口 |----|
14
口口口口 |①---|
口①①口 |----|
口口口口 |----|
口口口口 |----|
15
口①①口 |①---|
口口口口 |----|
口口口口 |----|
口口口口 |----|
16
口口口口 |①---|
①②口口 |----|
口口口口 |②---|
口口口口 |----|
17
口口口口 |①---|
口口①口 |----|
口口口② |②---|
口口口口 |----|
18
① |①---|
口口口口 |----|
口口口口 |②---|
口口口口

口口口
口口口口
口口口口
口口口口 |③---|
19
口口口口 |①---|
口①①口 |----|
口口口口 |----|
口口口口 |----|
20
口口口口 |①---|
①②口口 |----|
口口口口 |②---|
口口口口 |----|
21
口口口口 |①---|
口口①口 |----|
口口口口 |----|
口口口口 |----|
22
口口口口 |①---|
口口口口 |----|
口①①口 |②---|
口②②口 |----|
23
口口口口 |①---|
口口口口 |----|
口口口口 |----|
①口口① |----|
24
口口口口 |①---|
口口口口 |----|
口口口口 |②---|
①②口口 |----|
25
口③③口 |①---|
口②②口 |----|
口口口口 |②---|
口口①口 |③---|
26
①口口① |①---|
口口口口 |----|
口口口口 |----|
口口口口 |----|
27
口口口口 |①---|
①口口① |----|
口口口口 |----|
口口口口 |----|
28
口口口口 |①---|
口口口口 |----|
①口口① |----|
口口口口 |----|
29
口口③口 |①---|
口②口口 |----|
口口口口 |②---|
①口口① |③---|
30
①口口① |①---|
口口口口 |----|
口口口口 |----|
口口口口 |----|
31
口口口口 |①---|
①口口① |----|
口口口口 |----|
口口口口 |----|
32
口口口口 |①---|
口口口口 |----|
①口口① |----|
口口口口 |----|
33
②口口② |①---|
口口口口 |----|
口口口口 |②---|
①口口① |----|
34
口①①口 |①---|
口口口口 |----|
口口口口 |----|
口口口口 |----|
35
①口口① |①---|
口口口口 |----|
口口口口 |----|
口口口口 |----|
36
口口口口 |①---|
①口口① |----|
口口口口 |----|
口②②口 |--②-|
37
口口口口 |----|
口口口口 |----|
口口口口 |----|
口口口口 |----|
38
口口口口 |①---|
①②口口 |----|
口口口口 |②---|
口口口口 |----|
39
口口口口 |①---|
口口①② |----|
口口口口 |②---|
口口口口 |----|
40
口口口口 |①---|
口口口口 |----|
口①①口 |----|
口②②口 |--②-|
41
③口口③ |--①-|
②口口② |--②-|
①口口① |--③-|
口口口口 |----|
42
口①口口 |①---|
口口口口 |----|
口口口口 |----|
口口口口 |----|
43
口口①口 |①---|
口口口口 |----|
口口口口 |----|
口口口口 |----|
44
口口口口 |①---|
①口口① |----|
①口口① |----|
口口口口 |----|
45
口口口口 |----|
口口口口 |----|
口口口口 |----|
口口口口 |----|
46
口口口口 |①---|
口①口口 |----|
口口口口 |----|
口口口口 |----|
47
口口口口 |①---|
口口①口 |----|
口口口口 |----|
口口口口 |----|
48
口口口口 |①---|
②③口② |----|
①口口① |②---|
口口口口 |--③-|
49
口③口口 |--①-|
口口②口 |②-③-|
口①口口 |----|
口口口口 |----|
50
口口口口 |①---|
口口口口 |----|
②①口口 |②---|
口口口口 |----|
51
口口口口 |①---|
口口口口 |----|
口口①② |②---|
口口口口 |----|
52
口①②口 |①---|
口①②口 |----|
口口口口 |②---|
口口口口 |----|
53
口口口口 |①---|
②口口② |----|
①口口① |②---|
口口口口 |----|
54
口口口口 |①---|
口①①口 |----|
②口口口 |②---|
口口口口 |----|
55
口①①口 |①---|
口口口口 |----|
口口口② |②---|
口口口口 |----|
56
口口口口 |①---|
①②③④ |②---|
口口口口 |③---|
口口口口 |④---|
57
口口口① |①---|
口口口口 |----|
口口口② |②---|
口口口口 |----|
58
口口②① |①---|
口口口口 |----|
口口口口 |②---|
口口口口 |----|
59
口口口口 |①---|
口①①口 |----|
口②②口 |②---|
口口口口 |----|
60
口口口口 |①---|
①②口口 |----|
口口口口 |②---|
口口口口 |----|
61
口口口口 |①---|
口口①② |----|
口口口口 |②---|
口口口口 |----|
62
口口口口 |①---|
口口口口 |----|
口①①口 |②---|
口②②口 |----|
63
口口口口 |①---|
口口口口 |----|
②口口② |②---|
①口口① |----|
64
口口口口 |①---|
口口口口 |----|
口口口口 |②---|
①②口口 |----|
65
口③③口 |①---|
口②②口 |----|
口口口口 |②---|
口口①口 |③---|
66
口口口口 |①---|
口口口口 |----|
①口口① |----|
口口口口 |----|
67
口口口口 |①---|
①口口① |----|
口口口口 |----|
口口口口 |----|
68
①口口① |①---|
口口口口 |----|
口口口口 |----|
口口口口 |----|
69
口口口口 |①---|
口③③口 |----|
口②②口 |②---|
①口口① |③---|
70
口口口口 |①---|
口口口口 |----|
①口口① |----|
口口口口 |----|
71
口口口口 |①---|
①口口① |----|
口口口口 |----|
口口口口 |----|
72
①口口① |①---|
口口口口 |----|
口口口口 |----|
口口口口 |----|
73
口口口口 |①---|
口③③口 |----|
口②②口 |②---|
①口口① |③---|
74
①口口① |①---|
口口口口 |----|
口口口口 |----|
口口口口 |----|
75
口口口口 |①---|
①口口① |----|
口口口口 |----|
口口口口 |----|
76
口口口口 |①---|
口口口口 |----|
①口口① |----|
口口口口 |----|
77
口口③口 |①---|
口②口口 |----|
口口口口 |②---|
①口口① |③---|
78
①口口① |①---|
口口口口 |----|
口口口口 |----|
口口口口 |----|
79
口口口口 |①---|
①口口① |----|
口口口口 |----|
口口口口 |----|
80
口口口口 |①---|
口口口口 |----|
①口口① |----|
口口口口 |----|
81
②口口② |①---|
口口口口 |----|
口口口口 |②---|
①口口① |----|
82
口 |①---|
口 |----|



口口口口
口口口口
口口口口 |----|
口 |②---|

不確定度: 0

最終更新:2016年07月27日 16:38