Runway Drive
舞花

BASIC

Level: 3
BPM: 160
Notes: 182

1
口口口口 |----|
口口口口 |----|
口口口口 |----|
口口口口 |----|
2
口口口口 |①---|
口口口口 |②---|
①②③④ |③---|
口口口口 |④---|
3
口口口口 |①---|
口口口口 |②---|
①②③④ |③---|
口口口口 |④---|
4
口口口口 |①---|
口口口口 |②---|
①②③④ |③---|
口口口口 |④---|
5
口口口口 |①---|
口口口口 |②---|
①②③④ |③---|
口口口口 |④---|
6
口口口口 |①---|
①口③口 |②---|
口②口④ |③---|
口口口口 |④---|
7
口口口口 |①---|
口②口④ |②---|
①口③口 |③---|
口口口口 |④---|
8
口口口口 |①---|
①口③口 |②---|
口②口④ |③---|
口口口口 |④---|
9
口口④口 |①---|
口③口口 |②---|
口口②口 |③---|
口①口口 |④---|
10
①①口口 |①---|
口口口口 |----|
口口口口 |----|
口口口口 |----|
11
口口口口 |①---|
口口①① |----|
口口口口 |----|
口口口口 |----|
12
口口口口 |①---|
口口口口 |----|
①①口口 |----|
口口口口 |----|
13
口口口口 |①---|
口口口口 |----|
口口口口 |----|
口口①① |----|
14
口口口口 |①---|
口口口口 |----|
口口口口 |----|
①①口口 |----|
15
口口口口 |①---|
口口口口 |----|
口口①① |----|
口口口口 |----|
16
口口口口 |①---|
①①口口 |----|
口口口口 |----|
口口口口 |----|
17
口口①① |①---|
口口口口 |----|
口口口口 |----|
口口口口 |----|
18
口口口口 |①---|
①②口口 |----|
口口口口 |②---|
口口口口 |----|
19
口口口口 |①---|
口口②① |----|
口口口口 |②---|
口口口口 |----|
20
口口口口 |①---|
口口口口 |----|
①②口口 |②---|
口口口口 |----|
21
口口口口 |①---|
口口口口 |----|
口口②① |②---|
口口口口 |----|
22
口口口口 |①---|
口口口口 |----|
口口口口 |②---|
①②口口 |----|
23
口口口口 |①---|
口口口口 |----|
口口口口 |②---|
口口②① |----|
24
口口口口 |①---|
口口②口 |----|
口①口口 |②---|
口口口口 |----|
25
口①口口 |①---|
口口口口 |----|
口口口口 |----|
口口口口 |----|
26
口口口口 |①---|
口口口口 |----|
口口②① |②---|
口口口口 |----|
27
口口口口 |①---|
口口口口 |----|
①②口口 |②---|
口口口口 |----|
28
口口口口 |①---|
口口②① |----|
口口口口 |②---|
口口口口 |----|
29
口口口口 |①---|
①②口口 |----|
口口口口 |②---|
口口口口 |----|
30
口口②① |①---|
口口口口 |----|
口口口口 |②---|
口口口口 |----|
31
①②口口 |①---|
口口口口 |----|
口口口口 |②---|
口口口口 |----|
32
口口口口 |①---|
口口①口 |----|
口②口口 |②---|
口口口口 |----|
33
口口口口 |①---|
口口口口 |----|
口口口口 |----|
口口①口 |----|
34
口口口口 |①---|
①①③③ |--②-|
②②口口 |----|
口口口口 |--③-|
35
口口口口 |----|
口口口口 |----|
口口口口 |----|
口口口口 |----|
36
口口口口 |①---|
口口口口 |----|
口口口① |----|
口口口口 |----|
37
口口口口 |①---|
口口口口 |----|
口口①口 |----|
口口口口 |----|
38
口口口口 |①---|
口口口口 |----|
口口②口 |②---|
口①口口 |----|
39
口口②口 |①---|
口①口口 |----|
口口口口 |②---|
口口口口 |----|
40
口口口口 |①---|
①②口口 |----|
口口口口 |②---|
口口口口 |----|
41
口口口口 |①---|
口口①② |----|
口口口口 |②---|
口口口口 |----|
42
口口口口 |①---|
口③③口 |----|
①②口口 |②---|
口口口口 |--③-|
43
口口口口 |----|
口口口口 |--①-|
口①①口 |----|
口口口口 |----|
44
口口口口 |----|
口口口口 |----|
口①②口 |①---|
口口口口 |②---|
45
①口口口 |①---|
②口口口 |②---|
③口口口 |③---|
口口口口 |----|
46
口口口口 |①---|
口口口口 |----|
口②口口 |②---|
口①口口 |----|
47
口②口口 |①---|
口①口口 |----|
口口口口 |②---|
口口口口 |----|
48
口口口口 |①---|
口①①口 |----|
口③②口 |②---|
口口口口 |③---|
49
口口口口 |①---|
④③②① |②---|
口口口口 |③---|
口口口口 |④---|
50
口口口口 |①---|
口口口口 |----|
①③②口 |②---|
口口口口 |③---|
51
口口口口 |①---|
④③②① |②---|
口口口口 |③---|
口口口口 |④---|
52
口①①口 |①---|
口口口口 |----|
口③②口 |②---|
口口口口 |③---|
53
口口口① |①---|
口口口② |②---|
口口口③ |③---|
口口口口 |----|
54
口口口口 |①---|
口口口口 |----|
口口②口 |②---|
口口①口 |----|
55
口口②口 |①---|
口口①口 |----|
口口口口 |②---|
口口口口 |----|
56
口口口口 |①---|
口①①口 |----|
口②③口 |②---|
口口口口 |③---|
57
口口口口 |①---|
①②③④ |②---|
口口口口 |③---|
口口口口 |④---|
58
口口口口 |①---|
口口口口 |②---|
④③②① |③---|
口口口口 |④---|
59
口口口口 |①---|
口口口口 |②---|
口口口口 |③---|
①②③④ |④---|
60
口口口口 |①---|
口口口口 |②---|
④③②① |③---|
口口口口 |④---|
61
口口口口 |①---|
①②③④ |②---|
口口口口 |③---|
口口口口 |④---|
62
口①①口 |①---|
口②②口 |----|
口口口口 |②---|
口口口口 |----|
63
口口口口 |①---|
口口②口 |----|
口①①口 |②---|
口口口口 |----|
64
口口口口 |①---|
②①口口 |----|
口口口口 |②---|
口口口口 |----|
65
口口口口 |①---|
口口口口 |----|
①口口口 |②---|
口②口口 |----|
66
口口口口 |①---|
口口口口 |----|
口口口② |②---|
口口①口 |----|
67
口口口口 |①---|
口口②① |----|
口口口口 |②---|
口口口口 |----|
68
口口口口 |①---|
②①口口 |----|
口口口口 |②---|
口口口口 |----|
69
①口口口 |①---|
口②口口 |----|
口口口口 |②---|
口口口口 |----|
70
口口口② |①---|
口口①口 |----|
口口口口 |②---|
口口口口 |----|
71
口口口口 |①---|
口①①口 |----|
口口口口 |----|
口口口口 |----|

不確定度: 0

最終更新:2016年07月27日 16:36