Runway Drive
舞花

ADVANCED

Level: 6
BPM: 160
Notes: 353

1
口口口口 |----|
口口口口 |----|
口口口口 |----|
口口口口 |----|
2
①口口口 |①---|
②口口口 |②---|
③口口口 |③---|
④口口口 |④---|
3
口口口① |①---|
口口口② |②---|
口口口③ |③---|
口口口④ |④---|
4
口①口口 |①---|
口②口口 |②---|
口③口口 |③---|
口④口口 |④---|
5
口口①口 |①---|
口口②口 |②---|
口口③口 |③---|
口口④口 |④---|
6
①口口口 |①---|
②口口口 |②---|
③口口口 |③---|
④口口口 |④---|
7
口口口① |①---|
口口口② |②---|
口口口③ |③---|
口口口④ |④---|
8
口①口口 |①---|
口②⑤⑤ |②---|
口③口口 |③---|
口④口口 |④-⑤-|
9
口①②口 |--①-|
口③口口 |②-③-|
口⑦⑥口 |④-⑤-|
口⑤④口 |⑥-⑦-|
10
口口口① |①---|
口口④② |②---|
口口口③ |③---|
口口口口 |--④-|
11
口口口口 |----|
口口口口 |①---|
口①口口 |----|
口口口口 |----|
12
①口口口 |①---|
②④口口 |②---|
③口口口 |③---|
口口口口 |--④-|
13
口口口口 |----|
口口口口 |①---|
口口①口 |----|
口口口口 |----|
14
口口口① |①---|
口口④② |②---|
口口口③ |③---|
口口口口 |--④-|
15
口口口口 |----|
口口口口 |①---|
口①口口 |----|
口口口口 |----|
16
①口口口 |①---|
②④口口 |②---|
③口口口 |③---|
口口口口 |--④-|
17
口口口口 |----|
口口口口 |①---|
口口①口 |----|
②③口口 |②-③-|
18
口口口口 |①---|
④⑤⑥口 |②-③-|
口口③② |--④-|
口口①口 |⑤-⑥-|
19
②②①① |--①-|
口口③口 |--②-|
口④口口 |--③-|
口口⑤口 |④-⑤-|
20
口口口口 |①---|
①④④口 |②-③-|
口口③② |--④-|
口⑤⑤口 |--⑤-|
21
口口口口 |----|
④③②① |----|
口口口口 |①-②-|
口口口口 |③-④-|
22
口①①口 |①---|
⑤口口⑤ |②-③-|
口③②口 |--④-|
口④④口 |--⑤-|
23
口口口口 |--①-|
口④⑤口 |--②-|
①口③① |--③-|
②口口② |④-⑤-|
24
口口③② |①---|
④口⑤口 |②-③-|
口①口口 |--④-|
口口口口 |--⑤-|
25
口口口口 |----|
口口口口 |----|
口口口口 |----|
口①①口 |①---|
26
口口口口 |①---|
口口③② |②-③-|
口①①口
口口口口

口口口口
口口口口
④⑤⑥口 |--④-|
口口口口 |⑤-⑥-|
27
②口口口 |--①-|
口⑤④③ |--②-|
口口口口 |--③-|
①口口口 |④-⑤-|
28
口口口① |①---|
口⑥⑤④ |②-③-|
②③口口 |--④-|
口口口口 |⑤-⑥-|
29
口口口④ |----|
口口口③ |----|
口口口② |①-②-|
口口口① |③-④-|
30
②⑤④⑤ |①---|
口口口口 |②-③-|
口③口口 |--④-|
①①口口 |--⑤-|
31
口口口口 |--①-|
①口①口 |--②-|
口②口②
口口口口

口口口口
口口④口
口口口口 |--③-|
③口③口 |--④-|
32
④口口④ |①---|
口②口口 |②-③-|
口③①口 |--④-|
⑤口口⑤ |--⑤-|
33
口口口口 |----|
口口口口 |----|
口口口口 |----|
①②口口 |①-②-|
34
⑤⑥④⑥ |①-②-|
②③④口 |③-④-|
口口①口 |--⑤-|
口口①口 |--⑥-|
35
口口口口 |--①-|
口④⑤口 |②-③-|
口③②① |----|
口口口口 |④-⑤-|
36
口①口② |①---|
口口口③ |②-③-|
口口④口 |--④-|
口⑤⑤口 |--⑤-|
37
口②口口 |--①-|
口④口口 |②---|
口①③口 |----|
口口口口 |③-④-|
38
②②①① |①---|
口口口口 |----|
口口口口 |②---|
口口口口 |----|
39
②②①① |①---|
口口口口 |----|
口口口口 |②---|
口口口口 |----|
40
④⑤⑥口 |①---|
口口③口 |②-③-|
口口②口 |--④-|
口①①口 |⑤-⑥-|
41
口口口口 |----|
①②③④ |----|
口口口口 |①-②-|
口口口口 |③-④-|
42
口口口口 |①---|
⑤口口⑤ |②-③-|
④①①④ |--④-|
口③②口 |--⑤-|
43
口口③口 |--①-|
口②口口 |②-③-|
口口①口 |--④-|
口④④口 |----|
44
④口口口 |----|
口口口③ |----|
②口口口 |①-②-|
口口口① |③-④-|
45
口②①口 |①---|
口①②口 |②---|
口口口口 |③---|
口③③④ |--④-|
46
③④③口 |①-②-|
口⑤口② |--③-|
口⑥口① |--④-|
口口口口 |⑤-⑥-|
47
④④⑤⑤ |①---|
口口③口 |②-③-|
口口②口 |--④-|
口①口① |--⑤-|
48
口口口口 |----|
①口③口 |----|
口②口④ |①-②-|
口口口口 |③-④-|
49
口口③口 |①---|
④⑤⑥口 |②-③-|
口口②口 |--④-|
口①①口 |⑤-⑥-|
50
②口口口 |①---|
口③口③ |--②-|
④口④口 |③---|
口口①口 |④---|
51
口口口口 |①---|
③口④② |--②-|
口口口口 |--③-|
口①口① |--④-|
52
口口口④ |----|
③口口口 |----|
口口口② |①-②-|
①口口口 |③-④-|
53
口①②口 |①---|
口②①口 |②---|
口口口口 |③---|
④③③口 |--④-|
54
口③④③ |①-②-|
②口⑤口 |--③-|
①口⑥口 |--④-|
口口口口 |⑤-⑥-|
55
⑤⑤④④ |①---|
口③口口 |②-③-|
口②口口 |--④-|
①口①口 |--⑤-|
56
口口口口 |----|
口③口① |----|
④口②口 |①-②-|
口口口口 |③-④-|
57
口③口口 |①---|
⑤⑤④④ |②-③-|
口②口口 |--④-|
口①①口 |--⑤-|
58
口②②口 |--①-|
口口口⑤ |②---|
④①①口 |--③-|
口口口③ |④-⑤-|
59
①②②口 |①---|
⑥③③⑥ |②-③-|
口⑤⑤口 |--④-|
口④④口 |⑤-⑥-|
60
口②①口 |--①-|
口口③口 |②-③-|
口口口口 |----|
口口口口 |----|
61
口口口口 |----|
口①口口 |----|
口口口口 |----|
口口口口 |--①-|
62
②②①① |①---|
口口③③ |②---|
④⑤口口 |③---|
口口口口 |④-⑤-|
63
②口口② |①---|
口口口口 |----|
口口①口 |----|
口口口口 |--②-|
64
口口口口 |----|
口口口口 |----|
口口口口 |----|
口口口口 |----|
65
①口口口 |①---|
②口口口 |②---|
③口口口 |③---|
④口口口 |④---|
66
口口口④ |①---|
口口口③ |②---|
口口口② |③---|
口口口① |④---|
67
口口④口 |①---|
口口③口 |②---|
口口②口 |③---|
口口①口 |④---|
68
口①口口 |①---|
口②口口 |②---|
口③口口 |③---|
口④口口 |④---|
69
口口口① |①---|
口口口② |②---|
口口口③ |③---|
口口口④ |④---|
70
①口口口 |①---|
②口口口 |②---|
③口口口 |③---|
④口口口 |④---|
71
口口口口 |①---|
口①①口 |----|
口①①口 |----|
口口口口 |----|

不確定度: 0

最終更新:2016年07月27日 16:36