RHYZING BEAT
PHQUASE

BASIC

Level: 5
BPM: 187
Notes: 383

1
口口口口 |----|
口口口口 |----|
口口口口 |----|
口口口口 |----|
2
①口口② |①---|
口口口口 |----|
口口口口 |②---|
口口口口 |----|
3
口口口口 |①--②|
口①②口 |----|
口口口口 |----|
口口口口 |----|
4
口口口口 |①---|
口口口口 |②---|
④口口④ |③---|
①②③口 |④---|
5
口②①口 |①---|
口③③口 |②---|
口口口口 |③---|
口口口口 |----|
6
口口口口 |①---|
口口口口 |②---|
④口口④ |③---|
①②③口 |④---|
7
口②①③ |①---|
口口口④ |②---|
口口口⑤ |③--④|
口口口口 |--⑤-|
8
口口口口 |①---|
口口口口 |②---|
④口口④ |③---|
①②③口 |④---|
9
口口口口 |①---|
口口口口 |②---|
④口口④ |③---|
①②③口 |④---|
10
①口口② |①---|
口口口口 |----|
口口口口 |②---|
口口口口 |----|
11
口口口口 |①--②|
口①②口 |----|
口口口口 |----|
口口口口 |----|
12
⑤⑤口口 |①-②-|
④④口口 |--③-|
③③口口 |--④-|
②②①口 |--⑤-|
13
口口①① |--①-|
口口②② |--②-|
口口③③ |--③-|
口口口口 |----|
14
⑤⑤口口 |①-②-|
④④口口 |--③-|
③③口口 |--④-|
②②①口 |--⑤-|
15
口口①① |--①-|
口②②口 |----|
口口口口 |--②-|
口口口口 |----|
16
口口⑤⑤ |①-②-|
口口④④ |--③-|
口口③③ |--④-|
口①②② |--⑤-|
17
口口口口 |-①--|
①②③④ |②--③|
口口口口 |--④-|
口口口口 |----|
18
口口⑤⑤ |①-②-|
口口④④ |--③-|
口口③③ |--④-|
口①②② |--⑤-|
19
①①口口 |--①-|
②②口口 |--②-|
口③③口 |③---|
口口口口 |----|
20
口口口口 |①---|
口口口口 |②---|
④口口④ |③---|
①②③口 |④---|
21
口②①口 |①---|
口③③口 |②---|
口口口口 |③---|
口口口口 |----|
22
口口口口 |①---|
口口口口 |②---|
④口口④ |③---|
①②③口 |④---|
23
④②①④ |①---|
口③③口 |②---|
口口口口 |③-④-|
口口口口 |----|
24
口口口口 |①---|
口口口口 |②---|
④口口④ |③---|
①②③口 |④---|
25
口②①口 |①---|
口③③口 |②---|
口口口口 |③---|
口口口口 |----|
26
口口口口 |①---|
口口口口 |②---|
④口口④ |③---|
①②③口 |④---|
27
④②①④ |①---|
口③③口 |②---|
口口口口 |③-④-|
口口口口 |----|
28
口口口口 |①---|
口口口口 |②---|
④口口④ |③---|
①②③口 |④---|
29
口口口口 |①---|
口口口口 |②---|
④口口④ |③---|
①②③口 |④---|
30
口口口口 |①---|
口口口口 |②---|
④口口④ |③---|
①②③口 |④---|
31
口口口口 |①---|
口口口口 |②---|
④口口④ |③---|
①②③口 |④---|
32
口口口口 |①---|
口④④口 |②---|
口④④口 |③---|
①②③口 |④---|
33
口口口口 |①---|
口④④口 |②---|
口④④口 |③---|
①②③口 |④---|
34
①口口② |①---|
口口口口 |----|
口口口口 |②---|
口口口口 |----|
35
口口口口 |①--②|
口①②口 |----|
口口口口 |----|
口口口口 |----|
36
①②口口 |①---|
口口口口 |----|
口口口口 |②---|
口口口口 |----|
37
口口①② |①---|
口口口口 |----|
口口口口 |②---|
口口口口 |----|
38
口口口口 |①---|
①②口口 |----|
口口口口 |②---|
口口口口 |----|
39
口②①口 |①--②|
口④③口 |--③-|
口口⑤口 |-④--|
口口口口 |⑤---|
40
口口口口 |①---|
口口口口 |----|
口口口口 |②---|
①②口口 |----|
41
口口口口 |①---|
口口口口 |----|
口口口口 |②---|
口口①② |----|
42
口口口口 |①---|
口口口口 |----|
①②口口 |②---|
口口口口 |----|
43
口口口口 |①---|
口口口口 |----|
口口①口 |----|
口口口口 |----|
44
①②③④ |①---|
口口口口 |②---|
口口口口 |③---|
口口口口 |④---|
45
口口口口 |①---|
口口口口 |②---|
①②③口 |③---|
口口口口 |----|
46
口口口口 |①---|
④③②① |②---|
口口口口 |③---|
口口口口 |④---|
47
口②①口 |①--②|
口④③口 |--③-|
口口⑤口 |-④--|
口口口口 |⑤---|
48
口口 |①---|
口口 |----|
口口 |----|
口口 |----|
49
口口 |----|
口口口口 |----|
口口口口 |----|
口口口口 |--①-|
50
口口口口 |----|
口口口口 |----|
口口口口 |----|
口口口口 |----|
51
口④④口 |①---|
口③③口 |②---|
口②②口 |③---|
口①①口 |④---|
52
口口口口 |①---|
口口口口 |②---|
④口口④ |③---|
①②③口 |④---|
53
口口口口 |①---|
②②①① |--②-|
口口口口 |----|
口口口口 |----|
54
口口口口 |①---|
口口口口 |②---|
④口口④ |③---|
①②③口 |④---|
55
口口口口 |①---|
口①①口 |----|
口口口口
口口口口

口口口口
口口④口
口③②口 |②--③|
口口口口 |--④-|
56
口口口口 |①---|
口口口口 |②---|
④口口④ |③---|
①②③口 |④---|
57
口口口口 |①---|
口口口口 |②---|
④口口④ |③---|
①②③口 |④---|
58
①口口② |①---|
口口口口 |----|
口口口口 |②---|
口口口口 |----|
59
口口口口 |①--②|
口①②口 |----|
口口口口 |----|
口口口口 |----|
60
口①口口 |①-②-|
口④②口 |--③-|
口⑤③口 |--④-|
口口口口 |--⑤-|
61
口口口口 |--①-|
口③①口 |--②-|
口④②口 |--③-|
口口口口 |--④-|
62
①口口① |①---|
口口口口 |----|
口口口口 |----|
口口口口 |----|
63
口口口口 |①---|
口口口口 |②---|
口口口口 |③---|
④③②① |④---|
64
口口④③ |①-②-|
口②口口 |----|
口口①口 |③---|
口口口口 |④---|
65
③④口口 |①-②-|
口口②口 |----|
口①口口 |③---|
口口口口 |④---|
66
口口口口 |①---|
口②①口 |--②-|
口口③口 |----|
口口口口 |③---|
67
口口口口 |①---|
口口口口 |②---|
口口口口 |③---|
①②③④ |④---|
68
口口口口 |①---|
①③口① |----|
口口②口 |②-③-|
口口口口 |----|
69
口口口口 |①---|
①③口① |----|
口口②口 |②-③-|
口口口口 |----|
70
口口口口 |①---|
①③口① |----|
口口②口 |②-③-|
口口口口 |----|
71
②口口① |①---|
口口口口 |----|
口口口口 |②---|
口口口口 |----|
72
②②②② |①---|
口①①口 |----|
口口口口 |----|
口口口口 |--②-|
73
口口口口 |----|
口口口口 |----|
口口口口 |----|
口口口口 |----|
74
①口口② |①---|
口口口口 |----|
口口口口 |②---|
口口口口 |----|
75
口口口口 |①--②|
口①②口 |----|
口口口口 |----|
口口口口 |----|
76
口口口口 |①---|
口口口口 |②---|
④口口④ |③---|
①②③口 |④---|
77
口口口口 |①---|
口口口口 |②---|
④口口④ |③---|
①②③口 |④---|
78
口口口口 |①---|
口口口口 |②---|
④口口④ |③---|
①②③口 |④---|
79
④②①④ |①---|
口③③口 |②---|
口口口口 |③-④-|
口口口口 |----|
80
口口口口 |①---|
口口口口 |②---|
④口口④ |③---|
①②③口 |④---|
81
口口口口 |①---|
口口口口 |②---|
④口口④ |③---|
①②③口 |④---|
82
口②①口 |①---|
口③③口 |②---|
口口口口 |③---|
口口口口 |----|
83
①口口口 |①---|
口口口② |②---|
③口口口 |③---|
口口口④ |④---|
84
口口口口 |①---|
口口口口 |②---|
④口口④ |③---|
①②③口 |④---|
85
口口口口 |①---|
口口口口 |②---|
④口口④ |③---|
①②③口 |④---|
86
口口口口 |①---|
口口口口 |②---|
④口口④ |③---|
①②③口 |④---|
87
④②①④ |①---|
口③③口 |②---|
口口口口 |③-④-|
口口口口 |----|
88
口口口口 |①---|
口④④口 |②---|
口④④口 |③---|
①②③口 |④---|
89
口口口口 |①---|
口④④口 |②---|
口④④口 |③---|
①②③口 |④---|
90
①口口② |①---|
口口口口 |----|
口口口口 |②---|
口口口口 |----|
91
口口口口 |①--②|
口①口 |----|
口口口 |----|
口口口口 |----|
92
口口口口 |①---|
口口口 |----|
口口口口 |----|
口口口口 |----|

不確定度: 0

最終更新:2016年07月27日 16:35