RHYZING BEAT
PHQUASE

ADVANCED

Level: 8
BPM: 187
Notes: 643

1
口口口口 |----|
口口口口 |----|
口口口口 |----|
口口口口 |----|
2
口口口口 |①---|
口①②口 |----|
口口口口 |②---|
口口口口 |----|
3
②口口② |①--②|
口口口口 |----|
口口口口 |----|
①口口① |----|
4
③口口② |①---|
口口口口 |②--③|
①口口④ |--④-|
⑤⑥⑦口 |⑤⑥⑦-|
5
③口口② |①---|
口④④口 |②--③|
①口口口 |--④-|
口口口口 |----|
6
③口口② |①---|
口口口口 |②--③|
①口口④ |--④-|
⑤⑥⑦口 |⑤⑥⑦-|
7
口③③② |①---|
口④④口 |②---|
①⑤⑤口 |③--④|
口口口口 |--⑤-|
8
③口口② |①---|
口口口口 |②--③|
①口口④ |--④-|
⑤⑥⑦口 |⑤⑥⑦-|
9
③口口② |①---|
口口口口 |②--③|
①口口④ |--④-|
⑤⑥⑦口 |⑤⑥⑦-|
10
口口口口 |①---|
口①②口 |----|
口口口口 |②---|
口口口口 |----|
11
②口口② |①--②|
口口口口 |----|
口口口口 |----|
①口口① |----|
12
口③⑥⑥ |①-②-|
⑦口②② |③-④-|
口⑤⑧⑧ |⑤-⑥-|
①口④④ |⑦-⑧-|
13
①口⑥⑥ |①-②-|
口⑤②② |③-④-|
口⑦口口 |⑤-⑥-|
③口④④ |⑦---|
14
①口⑧⑧ |①-②-|
口⑤④④ |③-④-|
口⑦②② |⑤-⑥-|
③口⑥⑥ |⑦-⑧-|
15
⑥口口口 |①-②-|
①④口口 |③---|
口口②② |④-⑤-|
③口⑤⑤ |⑥---|
16
⑧⑧⑤口 |①-②-|
④④口① |③-④-|
②②⑦③ |⑤-⑥-|
⑥⑥口口 |⑦-⑧-|
17
口口口口 |-①--|
④③②① |②--③|
口口口口 |--④-|
口口口口 |----|
18
②②⑦口 |①-②-|
⑧⑧口⑤ |③-④-|
⑥⑥③口 |⑤-⑥-|
④④口① |⑦-⑧-|
19
②②口口 |①-②-|
口⑦⑥口 |--③-|
口⑤④口 |④-⑤-|
③③口① |⑥-⑦-|
20
③口口② |①---|
口口口口 |②--③|
①口口④ |--④-|
⑤⑥⑦口 |⑤⑥⑦-|
21
③口口② |①---|
口⑤⑤口 |②--③|
①口口④ |--④-|
口口口口 |⑤---|
22
③口口② |①---|
口口口口 |②--③|
①口口④ |--④-|
⑤⑥⑦口 |⑤⑥⑦-|
23
③⑤⑤② |①---|
口口口口 |②--③|
①口口口 |--④-|
④口口④ |--⑤-|
24
③口口② |①---|
口口口口 |②--③|
①口口④ |--④-|
⑤⑥⑦口 |⑤⑥⑦-|
25
③口口② |①---|
口⑤⑤口 |②--③|
①口口④ |--④-|
口口口口 |⑤---|
26
③口口② |①---|
口口口口 |②--③|
①口口④ |--④-|
⑤⑥⑦口 |⑤⑥⑦-|
27
③⑥⑥② |①---|
口⑤⑤口 |②--③|
①④④口 |--④-|
口口口口 |⑤-⑥-|
28
③口口② |①---|
口口口口 |②--③|
①口口④ |--④-|
⑤⑥⑦口 |⑤⑥⑦-|
29
③口口② |①---|
口口口口 |②--③|
①口口④ |--④-|
⑤⑥⑦口 |⑤⑥⑦-|
30
③口口② |①---|
口口口口 |②--③|
①口口④ |--④-|
⑤⑥⑦口 |⑤⑥⑦-|
31
③口口② |①---|
口口口口 |②--③|
①口口④ |--④-|
⑤⑥⑦口 |⑤⑥⑦-|
32
③⑤口② |①---|
⑤口口⑤ |②--③|
①口⑤④ |--④-|
口口口口 |⑤---|
33
③口口② |①---|
口口口⑤ |②--③|
①⑤⑤④ |--④-|
⑤口口口 |⑤---|
34
口口口口 |①---|
口①②口 |----|
口口口口 |②---|
口口口口 |----|
35
②口口② |①--②|
口口口口 |----|
口口口口 |----|
①口口① |----|
36
④口口⑤ |①--②|
口口口⑥ |--③-|
①②③⑦ |④-⑤⑥|
⑧口口口 |⑦-⑧-|
37
口④④口 |①--②|
口口口口 |--③-|
①②③口 |④-⑤-|
口⑤⑤口 |----|
38
④口口⑤ |①--②|
口口口⑥ |--③-|
①②③⑦ |④-⑤⑥|
⑧口口口 |⑦-⑧-|
39
口①④口 |①--②|
①③口④ |--③-|
③口②口 |-④--|
口⑤⑤② |⑤---|
40
⑤口口④ |①--②|
⑥口口口 |--③-|
⑦③②① |④-⑤⑥|
口口口⑧ |⑦-⑧-|
41
口④④口 |①--②|
口口口口 |--③-|
口③②① |④-⑤-|
口⑤⑤口 |----|
42
⑤口口④ |①--②|
⑥口口口 |--③-|
⑦③②① |④-⑤⑥|
口口口⑧ |⑦-⑧-|
43
口口口口 |①---|
口①①口 |----|
口口口口 |----|
口口口口 |----|
44
①口④口 |①--②|
⑧口口④ |--③-|
①③②口 |④-⑤⑥|
⑤⑥⑦口 |⑦-⑧-|
45
①④④口 |①--②|
口口口口 |--③-|
①③②口 |④-⑤-|
口⑤⑤口 |----|
46
①口④口 |①--②|
⑧口口④ |--③-|
①③②口 |④-⑤⑥|
⑤⑥⑦口 |⑦-⑧-|
47
⑤①口② |①--②|
口③口④ |--③-|
②口③⑤ |-④--|
口④口① |⑤---|
48
口口 |①---|
口口 |----|
口口 |----|
口口 |----|
49
口口口口 |----|
口口口口 |----|
口口口口 |----|
口口 |--①-|
50
口口口口 |----|
口口口口 |----|
口口口口 |----|
口口口口 |----|
51
口口①① |①---|
②②口口 |②---|
口口③③ |③---|
④④口口 |④---|
52
③口口② |①---|
口口口口 |②--③|
①口口④ |--④-|
⑤⑥⑦口 |⑤⑥⑦-|
53
③③④④ |①-②-|
②②⑤⑤ |③-④-|
①①⑥⑥ |⑤-⑥-|
口⑦⑧口 |⑦-⑧-|
54
③口口② |①---|
口口口口 |②--③|
①口口④ |--④-|
⑤⑥⑦口 |⑤⑥⑦-|
55
②①①口 |①---|
①④③① |----|
口口口② |②--③|
③口口④ |--④-|
56
③口口② |①---|
口口口口 |②--③|
①口口④ |--④-|
⑤⑥⑦口 |⑤⑥⑦-|
57
③口口② |①---|
口口口口 |②--③|
①口口④ |--④-|
⑤⑥⑦口 |⑤⑥⑦-|
58
口口口口 |①---|
口①②口 |----|
口口口口 |②---|
口口口口 |----|
59
②口口② |①--②|
口口口口 |----|
口口口口 |----|
①口口① |----|
60
口口⑦② |①-②-|
⑧⑨⑩口 |③④⑤-|
③④⑤口 |⑥-⑦-|
口口⑥① |⑧⑨⑩-|
61
②⑦口口 |①-②-|
口⑩⑨⑧ |③④⑤-|
口⑤④③ |⑥-⑦-|
①⑥口口 |⑧⑨⑩-|
62
①口口① |①---|
口口口口 |----|
口口口口 |----|
口口口口 |----|
63
①⑧⑧① |--①-|
口⑦②⑦ |②③④-|
⑥③⑥口 |⑤-⑥-|
口⑤④⑤ |⑦-⑧-|
64
口口口② |①-②-|
⑤口②口 |③④-⑤|
⑨⑧⑦⑥ |⑥-⑦-|
①④③口 |⑧-⑨-|
65
口口口② |①-②-|
⑤口②口 |③④-⑤|
⑨⑧⑦⑥ |⑥-⑦-|
①④③口 |⑧-⑨-|
66
②③口① |①-②③|
⑤⑥口④ |--④-|
口口口口 |⑤⑥--|
口⑧⑦口 |⑦-⑧-|
67
②口口① |①-②-|
口⑦⑤口 |③-④-|
口⑧⑥口 |⑤-⑥-|
④口口③ |⑦-⑧-|
68
⑥①①口 |-①--|
①口口① |②③④-|
⑤口口口 |⑤-⑥-|
口④③② |----|
69
⑥①①口 |-①--|
①口口① |②③④-|
⑤口口口 |⑤-⑥-|
口④③② |----|
70
⑥①①⑦ |-①--|
①口口① |②③④-|
⑤口口⑧ |⑤-⑥-|
口④③② |⑦-⑧-|
71
口①口口 |①--②|
口②口口 |--③-|
⑥③口⑤ |-④--|
口④口口 |⑤-⑥-|
72
口口口口 |①-②③|
②③口① |----|
口口口口
口口口口

口④口口
口口口④
④口口口 |----|
口口④口 |--④-|
73
口口口口 |----|
口口口口 |----|
口口口口 |----|
口口口口 |----|
74
口口口口 |①---|
口①②口 |----|
口口口口 |②---|
口口口口 |----|
75
②口口② |①--②|
口⑥⑤口 |----|
口④③口 |③-④-|
①口口① |⑤-⑥-|
76
③口口② |①---|
口⑤⑤口 |②--③|
①口口④ |-④--|
口口口口 |⑤---|
77
③口口② |①---|
口⑤④口 |②--③|
①⑦⑥口 |--④⑤|
口口⑧口 |⑥⑦⑧-|
78
③口口② |①---|
口口口口 |②--③|
①口口④ |--④-|
⑤⑥⑦口 |⑤⑥⑦-|
79
③⑤⑤② |①---|
口口口口 |②--③|
①口口口 |--④-|
④口口④ |--⑤-|
80
③口口② |①---|
口口口口 |②--③|
①口口④ |--④-|
⑤⑥⑦口 |⑤⑥⑦-|
81
③口口② |①---|
口⑤④口 |②--③|
①⑦⑥口 |--④⑤|
口口⑧口 |⑥⑦⑧-|
82
口③口② |①---|
③口口口 |②--③|
①口口口 |----|
④⑤⑥口 |④⑤⑥-|
83
⑧⑦⑥⑤ |①②③④|
⑫⑪⑩⑨ |⑤⑥⑦⑧|
④③②① |⑨⑩⑪⑫|
口口口⑬ |⑬---|
84
③口口② |①---|
口口口口 |②--③|
①口口④ |--④-|
⑤⑥⑦口 |⑤⑥⑦-|
85
③口口② |①---|
口⑤④口 |②--③|
①⑦⑥口 |--④⑤|
口口⑧口 |⑥⑦⑧-|
86
③口口② |①---|
口口口口 |②--③|
①口口④ |--④-|
⑤⑥⑦口 |⑤⑥⑦-|
87
③⑤⑤② |①---|
口口口口 |②--③|
①口口口 |--④-|
④口口④ |--⑤-|
88
③⑤口② |①---|
⑤口口⑤ |②--③|
①口⑤④ |--④-|
口口口口 |⑤---|
89
③口口② |①---|
口口口⑤ |②--③|
①⑤⑤④ |--④-|
⑤口口口 |⑤---|
90
口口口口 |①---|
口①②口 |----|
口口口口 |②---|
口口口口 |----|
91
口口 |①--②|
口口 |----|
口口 |----|
①口口① |----|
92
口口 |①---|
口口口口 |----|
口口口口 |----|
口口口口 |----|

不確定度: 0

最終更新:2016年07月27日 16:35