Hunny Bunny
U1 overground

BASIC

Level: 4
BPM: 160
Notes: 337

1
口口口口 |----|
口口口口 |----|
口口口口 |----|
口口口口 |----|
2
口口口口 |①---|
|----|
|----|
口口口口 |----|
3
口口口口 |----|
口口口口 |----|
口口口口 |----|
口口口口 |----|
4
口口口口 |----|
口口口口 |----|
口口口口 |----|
口口口口 |----|
5
口口口口 |----|
口口口口 |----|
口口口口 |----|
口口口口 |----|
6
口口口口 |①---|
口口口 |----|
口口口 |----|
口口口口 |----|
7
口口口口 |①---|
口①口口 |----|
口口口口 |----|
口口口口 |----|
8
口口口口 |①---|
口口①口 |----|
口口口口 |----|
口口口口 |----|
9
口口口口 |①---|
口口口① |----|
口口口口 |----|
口口口口 |----|
10
口②②口 |①---|
口口③口 |②---|
口③口口 |----|
口①①口 |③---|
11
口口口口 |①---|
③①口② |----|
⑤口①④ |②-③-|
口口口口 |④-⑤-|
12
口②②口 |①---|
口③口口 |②---|
口口③口 |----|
口①①口 |③---|
13
口口口口 |①---|
②口①③ |----|
④①口⑤ |②-③-|
口口口口 |④-⑤-|
14
口②②口 |①---|
口口③口 |②---|
口③口口 |----|
口①①口 |③---|
15
口口口口 |①---|
③①口② |----|
⑤口①④ |②-③-|
口口口口 |④-⑤-|
16
口④口口 |①---|
口口③口 |②---|
口②口口 |③---|
口口①口 |④---|
17
口口口口 |----|
口口口口 |----|
口口口口 |----|
口口口口 |----|
18
口口口口 |①---|
口口口口 |②---|
④③②① |③---|
口口口口 |④---|
19
②口口② |①---|
口①①口 |--②-|
口口口口 |----|
口口口口 |----|
20
口口口口 |①---|
口口口口 |②---|
①②③④ |③---|
口口口口 |④---|
21
口口口口 |①---|
①②③④ |②---|
口口口口 |③---|
口口口口 |④---|
22
口①①口 |①---|
③口口③ |②---|
口②②口 |③---|
④口口④ |④---|
23
口口口口 |①---|
口口口口 |②---|
口③④口 |③---|
口①②口 |④---|
24
①口口口 |①---|
②口口口 |--②-|
③口口口 |----|
口口口口 |③---|
25
口口口口 |--①-|
口②③口 |----|
口③②口 |②---|
①口口口 |③---|
26
④③②① |①---|
口口口口 |②---|
口口口口 |③---|
口口口口 |④---|
27
口口口口 |①---|
口③②① |②---|
口④③口 |③---|
口口④口 |④---|
28
①②③④ |①---|
口口口口 |②---|
口口口口 |③---|
口口口口 |④---|
29
口口口口 |①---|
①②③口 |②---|
口③④口 |③---|
口④口口 |④---|
30
④③②① |①---|
口口口口 |②---|
口口口口 |③---|
口口口口 |④---|
31
口口口口 |①---|
口③②① |②---|
口④③口 |③---|
口口④口 |④---|
32
①②③④ |①---|
口口口口 |②---|
口口口口 |③---|
口口口口 |④---|
33
口口口口 |①---|
①②③口 |②---|
口③④口 |③---|
口④口口 |④---|
34
口口口口 |①---|
口口口口 |②---|
①②③④ |③---|
口口口口 |④---|
35
②口口② |①---|
口①①口 |--②-|
口口口口 |----|
口口口口 |----|
36
口口口口 |①---|
口口口口 |②---|
④③②① |③---|
口口口口 |④---|
37
口口口口 |①---|
④③②① |②---|
口口口口 |③---|
口口口口 |④---|
38
口①①口 |①---|
③口口③ |②---|
口②②口 |③---|
④口口④ |④---|
39
口口口口 |①---|
口口①口 |②---|
口④口口 |③---|
口②③口 |④---|
40
口口口① |①---|
口口口② |--②-|
口口口③ |----|
口口口口 |③---|
41
口口口口 |--①-|
口③②口 |----|
口②③口 |②---|
口口口① |③---|
42
①②③④ |①---|
口口口口 |②---|
口口口口 |③---|
口口口口 |④---|
43
口口口口 |①---|
①②③④ |②---|
口口口口 |③---|
口口口口 |④---|
44
口口口口 |①---|
口口口口 |②---|
①②③④ |③---|
口口口口 |④---|
45
口口口口 |①---|
口口口口 |②---|
口口口口 |③---|
①②③④ |④---|
46
①①口口 |①---|
②②口口 |②---|
③③口口 |③---|
④④口口 |④---|
47
口口①① |①---|
口口②② |②---|
口口③③ |③---|
口口④④ |④---|
48
①①口口 |①---|
②②口口 |②---|
③③口口 |③---|
④④口口 |④---|
49
口口口口 |----|
口口口口 |----|
口口口口 |----|
口口口口 |----|
50
口②②口 |①---|
口口③口 |②---|
口③口口 |----|
口①①口 |③---|
51
口口口口 |①---|
③①口② |----|
⑤口①④ |②-③-|
口口口口 |④-⑤-|
52
口②②口 |①---|
口③口口 |②---|
口口③口 |----|
口①①口 |③---|
53
口口口口 |①---|
②口①③ |----|
④①口⑤ |②-③-|
口口口口 |④-⑤-|
54
口②②口 |①---|
口口③口 |②---|
口③口口 |----|
口①①口 |③---|
55
口口口口 |①---|
③①口② |----|
⑤口①④ |②-③-|
口口口口 |④-⑤-|
56
口④口口 |①---|
口口③口 |②---|
口②口口 |③---|
口口①口 |④---|
57
口口①口 |①---|
口②口口 |②---|
口口③口 |③---|
口④口口 |④---|
58
口口③口 |①---|
口②口口 |②---|
口口口① |③---|
口④口口 |④---|
59
口口口③ |①---|
②口口口 |②---|
口④①口 |③---|
口口口口 |④---|
60
口④口口 |①---|
口口③口 |②---|
②口口口 |③---|
口口口① |④---|
61
口口口① |①---|
口④口口 |②---|
②口口口 |③---|
口口③口 |④---|
62
②口口口 |①---|
口口口口 |②---|
口④口① |③---|
口口③口 |④---|
63
口口①口 |①---|
②口口口 |②---|
口口口口 |③---|
口④口③ |④---|
64
口口口③ |①---|
口②口口 |②---|
④口①口 |③---|
口口口口 |④---|
65
口口口口 |①---|
口②口口 |②---|
口口口③ |③---|
④口①口 |④---|
66
④④③③ |①---|
①①①① |②---|
口②②口 |③---|
口口口口 |④---|
67
口口口口 |①---|
口口③③ |②---|
②②①① |③---|
④④口口 |④---|
68
口口③③ |①---|
④④口口 |②---|
②②口口 |③---|
口口①① |④---|
69
口口口口 |①---|
口口③③ |②---|
②②口口 |③---|
④④①① |④---|
70
④④①① |①---|
口口③③ |②---|
②②口口 |③---|
口口口口 |④---|
71
口口口口 |①---|
口口③③ |②---|
②②口口 |③---|
④④①① |④---|
72
口口口口 |①---|
口口口口 |②---|
④③②① |③---|
口口口口 |④---|
73
口口口口 |①---|
①②③④ |②---|
口口口口 |③---|
口口口口 |④---|
74
口口口口 |①---|
口口口口 |----|
口口口口 |----|
①①①① |----|

不確定度: 0

最終更新:2016年07月27日 16:33