僕は空気が嫁ない
cosMo@暴走P

BASIC

Level: 4
BPM: 192
Notes: 302

1
口口口口 |----|
口口口口 |----|
口口口口 |----|
口口口口 |----|
2
口口口口 |①---|
口口口口 |----|
①①口口 |----|
口口口口 |----|
3
口口口口 |①---|
口口口口 |----|
口口①① |----|
口口口口 |----|
4
口口口口 |①---|
①②口口 |----|
口口口口 |②---|
口口口口 |----|
5
口口口口 |①---|
口口①② |----|
口口口口 |②---|
口口口口 |----|
6
①①口口 |①---|
口口口口 |----|
口口口口 |----|
口口口口 |----|
7
口口①① |①---|
口口口口 |----|
口口口口 |----|
口口口口 |----|
8
口口口口 |①---|
口①①口 |----|
口②②口 |②---|
口口口口 |----|
9
口口口口 |①---|
①口口① |----|
②口口② |②---|
口口口口 |----|
10
口④口口 |①---|
口③口口 |②---|
口②口口 |③---|
口①口口 |④---|
11
口口①口 |①---|
口口②口 |②---|
口口③口 |③---|
口口④口 |④---|
12
④口口口 |①---|
③口口口 |②---|
②口口口 |③---|
①口口口 |④---|
13
口口口① |①---|
口口口② |②---|
口口口③ |③---|
口口口④ |④---|
14
口口口口 |①---|
①②③④ |②---|
口口口口 |③---|
口口口口 |④---|
15
口口口口 |①---|
口口口口 |②---|
①②③④ |③---|
口口口口 |④---|
16
口口口口 |①---|
口口口口 |----|
口②②口 |②---|
口①①口 |----|
17
口②②口 |①---|
口①①口 |----|
口口口口 |②---|
口口口口 |----|
18
①口口口 |①---|
②口口口 |②---|
③口口口 |③---|
④口口口 |④---|
19
口口口④ |①---|
口口口③ |②---|
口口口② |③---|
口口口① |④---|
20
口①口口 |①---|
口②口口 |②---|
口③口口 |③---|
口④口口 |④---|
21
口口④口 |①---|
口口③口 |②---|
口口②口 |③---|
口口①口 |④---|
22
口口口口 |①---|
口口口口 |----|
①①②② |②---|
口口口口 |----|
23
口口口口 |①---|
①①②② |----|
口口口口 |②---|
口口口口 |----|
24
①②③④ |①---|
口口口口 |②---|
口口口口 |③---|
口口口口 |④---|
25
口口口口 |①---|
①②③④ |②---|
口口口口 |③---|
口口口口 |④---|
26
口口口口 |①---|
口口口口 |----|
口①口口 |----|
口口口口 |----|
27
口口口口 |①---|
口口口口 |----|
口口①口 |----|
口口口口 |----|
28
口口口口 |①---|
口口口口 |----|
口①口口 |----|
口口口口 |----|
29
③③②② |①---|
口口口口 |----|
口口①口 |②---|
口口口口 |③---|
30
口口口口 |①---|
口①①口 |----|
口②口口 |②---|
口口口口 |----|
31
口口口口 |①---|
口口口口 |----|
口口①口 |②---|
口②口口 |----|
32
口口口口 |①---|
口口口口 |----|
口口口口 |②---|
②口①口 |----|
33
口口口口 |①---|
口口口口 |----|
口②②口 |②---|
口口口① |----|
34
②口口① |①---|
④口口③ |②---|
口口口口 |③---|
口口口口 |④---|
35
口口口口 |①---|
口口口口 |②---|
②口口① |③---|
④口口③ |④---|
36
口口口口 |①---|
口口口口 |②---|
口④③口 |③---|
口②①口 |④---|
37
口④③口 |①---|
口②①口 |②---|
口口口口 |③---|
口口口口 |④---|
38
口口口口 |①---|
口②②口 |----|
口①①口 |②---|
口口口口 |----|
39
口口口口 |①---|
②口口② |----|
①口口① |②---|
口口口口 |----|
40
口口口口 |①---|
口③③口 |--②-|
口②②口 |----|
口①①口 |③---|
41
口口口口 |----|
口口口口 |----|
口口口口 |----|
口口口口 |----|
42
①②口口 |①---|
口口口口 |----|
口口口口 |②---|
口口口口 |----|
43
口口①② |①---|
口口口口 |----|
口口口口 |②---|
口口口口 |----|
44
口口口口 |①---|
①②口口 |----|
口口口口 |②---|
口口口口 |----|
45
口口口口 |①---|
口口①② |----|
口口口口 |②---|
口口口口 |----|
46
口口口口 |①---|
口口口口 |②---|
口③④口 |③---|
口①②口 |④---|
47
口③④口 |①---|
口①②口 |②---|
口口口口 |③---|
口口口口 |④---|
48
口③③口 |①---|
口②②口 |--②-|
口①①口 |----|
口口口口 |③---|
49
①口口① |①---|
口口口口 |----|
口口口口 |----|
口口口口 |----|
50
口口口口 |①---|
④③②① |②---|
口口口口 |③---|
口口口口 |④---|
51
口口口口 |①---|
口口口口 |②---|
④口②口 |③---|
口③口① |④---|
52
口口口口 |①---|
①②③④ |②---|
口口口口 |③---|
口口口口 |④---|
53
口口口口 |①---|
口口口口 |②---|
口②口④ |③---|
①口③口 |④---|
54
①口口口 |①---|
②口口口 |②---|
口③口口 |③---|
口④口口 |④---|
55
口口口④ |①---|
口口口③ |②---|
口口②口 |③---|
口口①口 |④---|
56
口①②口 |①---|
口③④口 |②---|
口口口口 |③---|
口口口口 |④---|
57
口口口口 |①---|
口口口口 |--②-|
口②②口 |----|
①口口① |----|
58
口口口口 |①---|
①②③④ |②---|
口口口口 |③---|
口口口口 |④---|
59
口口口口 |①---|
口口口口 |②---|
口②口④ |③---|
①口③口 |④---|
60
口口口口 |①---|
④③②① |②---|
口口口口 |③---|
口口口口 |④---|
61
口口口口 |①---|
口口口口 |②---|
④口②口 |③---|
口③口① |④---|
62
②②①① |①---|
口口口口 |----|
口口口口 |②---|
口口口口 |----|
63
口口口口 |①---|
②②①① |----|
口口口口 |②---|
口口口口 |----|
64
口口口口 |①---|
口口口口 |----|
②口口① |②---|
②口口① |----|
65
口口口口 |①---|
口③④口 |②---|
口①②口 |③---|
口口口口 |④---|
66
口④口口 |①---|
口③口口 |②---|
口②口口 |③---|
口①口口 |④---|
67
口口①口 |①---|
口口②口 |②---|
口口③口 |③---|
口口④口 |④---|
68
④口口口 |①---|
③口口口 |②---|
②口口口 |③---|
①口口口 |④---|
69
口口口① |①---|
口口口② |②---|
口口口③ |③---|
口口口④ |④---|
70
口口口口 |①---|
①②③④ |②---|
口口口口 |③---|
口口口口 |④---|
71
口口口口 |①---|
口口口口 |②---|
①②③④ |③---|
口口口口 |④---|
72
口口口口 |①---|
口口口口 |----|
口②②口 |②---|
口①①口 |----|
73
口②②口 |①---|
口①①口 |----|
口口口口 |②---|
口口口口 |----|
74
①口口口 |①---|
②口口口 |②---|
③口口口 |③---|
④口口口 |④---|
75
口口口④ |①---|
口口口③ |②---|
口口口② |③---|
口口口① |④---|
76
口①口口 |①---|
口②口口 |②---|
口③口口 |③---|
口④口口 |④---|
77
口口④口 |①---|
口口③口 |②---|
口口②口 |③---|
口口①口 |④---|
78
口口口口 |①---|
口口口口 |----|
①①②② |②---|
口口口口 |----|
79
口口口口 |①---|
①①②② |----|
口口口口 |②---|
口口口口 |----|
80
①②③④ |①---|
口口口口 |②---|
口口口口 |③---|
口口口口 |④---|
81
口口口口 |①---|
①②③④ |②---|
口口口口 |③---|
口口口口 |④---|
82
口口口口 |①---|
口口口口 |----|
口①①口 |----|
口口口口 |----|
83
口口口口 |①---|
口口口口 |----|
口①①口 |----|
口口口口 |----|
84
口口口口 |①---|
口口口口 |----|
口①①口 |----|
口口口口 |----|
85
口口口口 |①---|
口口口口 |----|
口①①口 |----|
口口口口 |----|
86
口口口口 |①---|
①②口口 |----|
口口口口 |②---|
口口口口 |----|
87
口口口口 |①---|
口口①② |----|
口口口口 |②---|
口口口口 |----|
88
口口口口 |①---|
口口口口 |----|
①②口口 |②---|
口口口口 |----|
89
口口口口 |①---|
口口口口 |----|
口口①② |②---|
口口口口 |----|
90
口口口口 |①---|
口①①口 |----|
口口口口 |----|
口口口口 |----|

不確定度: 0

最終更新:2016年07月27日 16:07