僕は空気が嫁ない
cosMo@暴走P

ADVANCED

Level: 8
BPM: 192
Notes: 659

1
口口口口 |----|
口③口口 |----|
口①口② |--①-|
口口口口 |②-③-|
2
④③②① |①-②-|
⑥口⑤口 |③-④-|
口口⑦口 |--⑤-|
口口口口 |⑥-⑦-|
3
口口口口 |①-②-|
口口⑤口 |③-④-|
口⑥⑦口 |--⑤-|
①②③④ |⑥-⑦-|
4
①口口③ |①-②-|
②口口④ |③-④-|
⑤口口⑦ |⑤-⑥-|
⑥口口⑧ |⑦-⑧-|
5
口口④口 |①-②-|
口③口⑦ |③-④-|
⑥口②⑤ |--⑤-|
口①口口 |⑥-⑦-|
6
①①口口 |①-②-|
②②口口 |--③-|
口口④④ |④---|
⑤口③③ |--⑤-|
7
口④口③ |①-②-|
④口②口 |③-④-|
口①口口
口口口口

口口口口
口口口口
口⑥口⑤ |--⑤-|
⑥口⑤口 |--⑥-|
8
口口③口 |①-②-|
口口口③ |--③-|
②口①口
口②口①

口④口⑤
④口⑤口
口⑥⑥口 |④-⑤-|
口口口口 |--⑥-|
9
口口口口 |①---|
④口口④ |②---|
③口口③ |③---|
②①①② |④---|
10
口①口④ |①-②-|
口口口口 |--③-|
口口②口 |----|
③口口口 |④---|
11
③①②④ |①---|
口口口口 |②---|
口口口口 |③---|
②④③① |④---|
12
口口口口 |①---|
口②①口 |----|
②口口① |②---|
口口口口 |----|
13
口口口口 |①---|
口⑥⑤口 |----|
口④③口 |②---|
②①①② |③④⑤⑥|
14
口口①口 |①---|
口口口① |②---|
口口口口 |③---|
口②③④ |④---|
15
②②口口 |①---|
口口③③ |②---|
④④口口 |③---|
①口口口 |④---|
16
口口口① |①---|
②④口口 |--②-|
口口③① |----|
②口口口 |③-④-|
17
口④①口 |①-②-|
④⑩⑨① |③-④-|
②⑧⑦③ |--⑤⑥|
⑥②③⑤ |⑦⑧⑨⑩|
18
口口①口 |①---|
口口③① |--②-|
口口口口 |----|
口②口口 |③---|
19
③①②④ |①---|
口口口口 |②---|
口口口口 |③---|
②④③① |④---|
20
口口口口 |①---|
口②①口 |----|
②口口① |②---|
口口口口 |----|
21
口口口口 |①---|
口⑥⑤口 |----|
口④③口 |②---|
②①①② |③④⑤⑥|
22
②口①② |①---|
口口口① |----|
口口口口 |②---|
口口口口 |----|
23
口口口口 |①---|
口④③② |②---|
口④③② |③---|
口①①口 |④---|
24
①口口口 |①-②-|
口口口② |③-④-|
③⑤⑤口 |--⑤-|
⑥口口④ |--⑥-|
25
⑥②①⑤ |①-②-|
口④③口 |③-④-|
口口口口 |--⑤-|
口口口口 |⑥---|
26
口口⑤口 |①---|
口口口④ |②-③-|
口口口③ |④---|
口①①② |--⑤-|
27
①口口口 |①-②-|
口口②口 |③-④-|
③⑥口口 |----|
口⑤④口 |⑤-⑥-|
28
④⑤⑥口 |①---|
口①口③ |②-③-|
口口口② |--④-|
口口口口 |⑤-⑥-|
29
口口口口 |----|
①口口② |----|
口①②口 |①---|
①口口② |②---|
30
②口口③ |①---|
口①①口 |----|
口口口口 |②---|
口①①口 |③---|
31
⑤⑥口口 |①---②-|
口①口④ |--③---|
口口②口 |④---|
口③口口 |⑤-⑥-|
32
口口①口 |①--②|
口④②⑤ |--③-|
口口③口 |--④-|
口口口口 |--⑤-|
33
口口口口 |①-②-|
口口口口 |③-④-|
口⑤⑤口 |----|
①②③④ |⑤---|
34
②③口④ |①---|
口①①④ |②-③-|
口口口口 |④---|
⑤口口口 |--⑤-|
35
③口口口 |①-②-|
③口口口 |--③-|
口⑤口② |----|
口①④② |④-⑤-|
36
口③口④ |①---|
⑤②①口 |②-③-|
口口口⑥ |--④-|
口口口口 |⑤-⑥-|
37
①口口② |----|
口口口口 |----|
口口口口 |①---|
②口口① |②---|
38
口②②口 |①---|
口①①口 |----|
口①①口 |②---|
口③③口 |③---|
39
①口口① |①---②-|
②④④② |--③---|
③⑥⑤③ |④---|
口口口口 |⑤-⑥-|
40
④③①④ |①---|
③口口① |②-③-|
口口口口 |--④-|
⑤口②⑤ |⑤---|
41
口口口口 |----|
口口口口 |----|
口口口口 |----|
口口口口 |----|
42
口②④口 |①---|
②口口④ |②---|
口口口口 |③---|
①③③① |④---|
43
②口口④ |①---|
口②④口 |②---|
口口口口 |③---|
①③③① |④---|
44
口②①口 |①---|
②⑤⑤① |②---|
口④④口 |③---④-|
口③③口 |--⑤---|
45
①口口① |①---|
口口口④ |----|
③口口口 |--②-|
口口口② |③-④-|
46
口①①⑤ |①---|
口口⑤口 |②-③-|
口⑤②口 |--④-|
⑤③④口 |--⑤-|
47
①口口口 |--①-|
②①口② |②---|
②口①② |----|
口③③① |③---|
48
③①①③ |①---|
口口口口 |--②-|
口口口口 |----|
②口口② |③---|
49
口口口口 |①---|
口①①口 |----|
①口口①
口口口口

口口口口
口口④口
口③口口 |--②-|
口口②口 |③-④-|
50
①①②② |①-②-|
③③口口 |③-④-|
口口④④ |--⑤-|
⑤⑥⑦口 |⑥-⑦-|
51
口③口① |①-②-|
④③②① |③-④-|
口⑦⑥⑤ |--⑤-|
口口口口 |⑥-⑦-|
52
③⑦⑤① |①-②-|
③⑦⑤① |③-④-|
口口口口 |⑤-⑥-|
④⑧⑥② |⑦-⑧-|
53
口口⑦口 |①-②-|
口⑥⑤口 |③-④-|
②④③① |--⑤-|
口口口口 |⑥-⑦-|
54
①口口① |①---②-|
②口口② |--③---|
③口⑤③ |④---|
口④④口 |--⑤-|
55
口口④④ |①-②-|
口③②口 |③-④-|
口①口口
口口口口

⑤⑤口口
口口口口
口⑥口口 |--⑤-|
⑥口口口 |--⑥-|
56
⑥④③⑤ |①-②-|
④口⑤③ |--③-|
②口①口 |④-⑤-|
口②口① |--⑥-|
57
口口③口 |①-②-|
口④⑦口 |③-④-|
口⑥④口 |--⑤-|
口①⑤② |⑥-⑦-|
58
①①②② |①-②-|
③③口口 |③-④-|
口口④④ |--⑤-|
⑤⑥⑦口 |⑥-⑦-|
59
口③口① |①-②-|
④③②① |③-④-|
口⑦⑥⑤ |--⑤-|
口口口口 |⑥-⑦-|
60
③⑦⑤① |①-②-|
③⑦⑤① |③-④-|
口口口口 |⑤-⑥-|
④⑧⑥② |⑦-⑧-|
61
②口⑦① |①-②-|
口⑥⑤口 |③-④-|
口口口口 |--⑤-|
④口口③ |⑥-⑦-|
62
①口口① |①---②-|
②口口② |--③---|
③口⑤③ |④---|
口④④口 |--⑤-|
63
口口④④ |①-②-|
口③②口 |③-④-|
口①口口
口口口口

⑤⑤口口
口口口口
口⑥口口 |--⑤-|
⑥口口口 |--⑥-|
64
口口③口 |①-②-|
口口口③ |--③-|
②口①口
口②口①

口④口⑤
④口⑤口
口⑥⑥口 |④-⑤-|
口口口口 |--⑥-|
65
口口口口 |①---|
④口口④ |②---|
③口口③ |③---|
②①①② |④---|
66
口①口④ |①-②-|
口口口口 |--③-|
口口②口 |----|
③口口口 |④---|
67
③①②④ |①---|
口口口口 |②---|
口口口口 |③---|
②④③① |④---|
68
口口口口 |①---|
口②①口 |----|
②口口① |②---|
口口口口 |----|
69
口口口口 |①---|
口⑥⑤口 |----|
口④③口 |②---|
②①①② |③④⑤⑥|
70
口口①口 |①---|
口口口① |②---|
口口口口 |③---|
口②③④ |④---|
71
②②口口 |①---|
口口③③ |②---|
④④口口 |③---|
①口口口 |④---|
72
口口口① |①---|
②④口口 |--②-|
口口③① |----|
②口口口 |③-④-|
73
口④①口 |①-②-|
④⑩⑨① |③-④-|
②⑧⑦③ |--⑤⑥|
⑥②③⑤ |⑦⑧⑨⑩|
74
口口①口 |①---|
口口③① |--②-|
口口口口 |----|
口②口口 |③---|
75
③①②④ |①---|
口口口口 |②---|
口口口口 |③---|
②④③① |④---|
76
口口口口 |①---|
口②①口 |----|
②口口① |②---|
口口口口 |----|
77
口口口口 |①---|
口⑥⑤口 |----|
口④③口 |②---|
②①①② |③④⑤⑥|
78
②口①② |①---|
口口口① |----|
口口口口 |②---|
口口口口 |----|
79
口口口口 |①---|
口④③② |②---|
口⑤口口 |③---|
⑤①①口 |④-⑤-|
80
口口③口 |①-②-|
口口口③ |--③-|
②口①口
口②口①

口④口⑤
④口⑤口
口⑥⑦口 |④-⑤-|
口口口口 |⑥-⑦-|
81
口口口口 |①---|
④口口④ |②---|
③口口③ |③---|
②①口② |④---|
82
口①口口 |①-②-|
口口口口 |----|
口口②口 |----|
口口口口 |----|
83
⑤口口⑥ |①-②-|
口③④口 |③-④-|
口①②口 |⑤-⑥-|
⑦口口口 |⑦---|
84
口口口口 |①-②-|
口口口口 |③-④-|
④⑦⑥⑤ |⑤-⑥-|
⑧③②① |⑦-⑧-|
85
①②③⑧ |①-②-|
⑤⑥⑦④ |③-④-|
口口口口 |⑤-⑥-|
口口口口 |⑦-⑧-|
86
④口口口 |①-②-|
⑤口口③ |③-④⑤|
口口②口
口①口口

口口口口
口口⑧口
⑥口口口 |⑥-⑦-|
口⑨⑦口 |⑧-⑨-|
87
②口口① |--①-|
口口口口 |--②-|
⑥⑤④③ |③④⑤⑥|
⑩⑨⑧⑦ |⑦⑧⑨⑩|
88
⑤⑦⑥口 |①-②-|
④②③① |③-④-|
口口口口 |--⑤-|
口口口口 |⑥-⑦-|
89
口口口① |①--②|
口④④② |--③-|
口⑤⑤③ |--④-|
口⑥⑥口 |⑤-⑥-|

不確定度: 0

最終更新:2016年07月27日 16:07