ディアブロ
水曜日のカンパネラ

BASIC

Level: 3
BPM: 106-133
Notes: 276

BPM: 106
1
口口口口 |----|
口口口口 |----|
口口口口 |----|
口口口口 |----|
2
口口④口 |①---|
口③口口 |②---|
口口②口 |③---|
口①口口 |④---|
3
①口口① |①---|
②口口② |----|
口③③口 |②---|
口口口口 |③---|
4
口口口口 |①---|
口口口口 |----|
口口口口 |----|
口①①口 |----|
5
口口口口 |①---|
口口口口 |----|
口①口口 |----|
口口口口 |----|
6
口口口口 |①---|
口口口口 |----|
口口口口
①①①①

口口口口
口口口口
口口口口 |②---|
②②②② |----|
7
④④④④ |①---|
③③③③ |②---|
②②②② |③---|
①①①① |④---|
8
口口口口 |①---|
口口口口 |----|
口①②口 |②---|
口口口口 |----|
9
口口口口 |①---|
①②③④ |②---|
口口口口 |③---|
口口口口 |④---|
10
口口口口 |①---|
口口口口 |----|
口①②口 |②---|
口口口口 |----|
11
口口口口 |①---|
①②③④ |②---|
口口口口 |③---|
口口口口 |④---|
12
①①②② |①---|
口口口口 |----|
口口口口 |②---|
口口口口 |----|
13
口口口口 |①---|
口①①口 |②---|
④②②④ |③---|
口③③口 |④---|
14
口口口口 |①---|
①②③④ |②---|
口口口口 |③---|
口口口口 |④---|
15
口口口口 |①---|
口口口口 |②---|
①②③④ |③---|
口口口口 |④---|
16
口口口口 |①---|
口口口口 |②---|
口口口口 |③---|
①②③④ |④---|
17
口口口口 |①---|
口口口口 |②---|
①②③④ |③---|
口口口口 |④---|
18
口口口口 |①---|
①②③④ |②---|
口口口口 |③---|
口口口口 |④---|
19
口口口口 |①---|
②口口② |②---|
口①①口 |③---|
③口口③ |----|

BPM: 133
20
口④口口 |①---|
口③口口 |②---|
口②口口 |③---|
口①口口 |④---|
21
口口①口 |①---|
口口②口 |②---|
口口③口 |③---|
口口④口 |④---|
22
口④口口 |①---|
口③口口 |②---|
口②口口 |③---|
口①口口 |④---|
23
口口①口 |①---|
口口②口 |②---|
口口③口 |③---|
口口④口 |④---|
24
口口口口 |①---|
口口口口 |②---|
①②③④ |③---|
口口口口 |④---|
25
口口口口 |①---|
①②③④ |②---|
口口口口 |③---|
口口口口 |④---|
26
口口口口 |①---|
口口口口 |②---|
①②③④ |③---|
口口口口 |④---|
27
口口口口 |①---|
③④④③ |②---|
③④④③ |③---|
口①②口 |④---|
28
①②③④ |①---|
口口口口 |②---|
口口口口 |③---|
口口口口 |④---|
29
口口口口 |①---|
①②③④ |②---|
口口口口 |③---|
口口口口 |④---|
30
口口口口 |①---|
口口口口 |②---|
①②③④ |③---|
口口口口 |④---|
31
口口口口 |①---|
口口口口 |②---|
口口口口 |③---|
①②③④ |④---|
32
口口口口 |①---|
口③④口 |②---|
口①②口 |③---|
口口口口 |④---|
33
③①②④ |①---|
口口口口 |②---|
口口口口 |③---|
口口口口 |④---|
34
口口口口 |①---|
①口口② |②---|
③口口④ |③---|
口口口口 |④---|
35
口口口口 |①---|
口④④口 |②---|
口③③口 |③---|
①口口② |④---|
36
①②③④ |①---|
口口口口 |②---|
口口口口 |③---|
口口口口 |④---|
37
口口口口 |①---|
①②③④ |②---|
口口口口 |③---|
口口口口 |④---|
38
口口口口 |①---|
口口口口 |②---|
①②③④ |③---|
口口口口 |④---|
39
口口口口 |①---|
口口口口 |②---|
口口口口 |③---|
①②③④ |④---|
40
口口口口 |①---|
口③④口 |②---|
口①②口 |③---|
口口口口 |④---|
41
③①②④ |①---|
口口口口 |②---|
口口口口 |③---|
口口口口 |④---|
42
口口口口 |①---|
③①①③ |②---|
④②②④ |③---|
口口口口 |④---|
43
④④④④ |①---|
口③③口 |②---|
口②②口 |③---|
口①①口 |④---|
44
口口口口 |----|
口③③口 |----|
口②②口 |①--②|
口①①口 |--③-|
45
口口口口 |----|
③口口③ |----|
②口口② |①--②|
①口口① |--③-|
46
口①①口 |----|
口②②口 |----|
口③③口 |①--②|
口口口口 |--③-|
47
①口口① |----|
②口口② |----|
③口口③ |①--②|
口口口口 |--③-|
48
口口口口 |----|
口③③口 |----|
口②②口 |①--②|
口①①口 |--③-|
49
口口口口 |----|
③口口③ |----|
②口口② |①--②|
①口口① |--③-|
50
口口口口 |----|
口③口口 |----|
口口②口 |①--②|
口①口口 |--③-|
51
②②①① |①---|
④④③③ |②---|
口口口口 |③---|
口口口口 |④---|
52
口口口口 |①--②|
口③③口 |--③-|
口②②口 |----|
口①①口 |----|
53
①②口口 |①---|
口口口口 |----|
口口口口 |②---|
口口口口 |----|
54
口口①② |①---|
口口口口 |----|
口口口口 |②---|
口口口口 |----|
55
口口口口 |①---|
①②口口 |----|
口口口口 |②---|
口口口口 |----|
56
口口口口 |①---|
口口口口 |----|
口①①口 |----|
口口口口 |----|
57
口口口口 |----|
口口口口 |----|
口口口口 |----|
口口口口 |----|
58
口口口口 |①---|
口口口口 |②---|
①②③④ |③---|
口口口口 |④---|
59
口口口口 |①---|
③④④③ |②---|
③④④③ |③---|
口①②口 |④---|

不確定度: 0

最終更新:2016年07月27日 16:05