fellow
ピンクターボ

EXTREME

Level: 8
BPM: 179
Notes: 601

1
口口口口 |----|
口口口口 |----|
口口口口 |----|
口口口口 |----|
2
口口④口 |----|
①③口② |①---|
①口④② |②---|
口③口口 |③-④-|
3
③①④② |①---|
口口口口 |②---|
口口口口 |③---|
口口口口 |④---|
4
⑤②⑤④ |①-②-|
①口③口 |--③-|
口②口④ |④---|
①口③口 |⑤---|
5
⑤②⑤④ |①-②-|
①口③口 |--③-|
口②口④ |④---|
①口③口 |⑤---|
6
口口④口 |----|
①③口② |①---|
①口④② |②---|
口③口口 |③-④-|
7
③①④② |①---|
口口口口 |②---|
口口口口 |③---|
口口口口 |④---|
8
⑤②⑤④ |①-②-|
①口③口 |--③-|
口②口④ |④---|
①口③口 |⑤---|
9
⑤②⑤④ |①-②-|
①口③口 |--③-|
口②口④ |④---|
①口③口 |⑤---|
10
口口口口 |①-②-|
口⑤③④ |③-④-|
①②⑤口 |----|
口口口口 |⑤---|
11
口①口口 |①-②-|
④口②口 |③---|
口⑤口③ |④-⑤-|
口口⑥口 |⑥---|
12
②口③口 |①-②-|
口④口口 |③-④-|
⑤口口⑥ |⑤---|
口口⑦① |⑥-⑦-|
13
口口④口 |①-②-|
口⑤口① |③---|
⑥口②口 |④-⑤-|
口③口口 |⑥---|
14
⑦口⑧② |①-②-|
③口口⑥ |③-④-|
⑨④⑩口 |⑤-⑥-|
①口⑤口 |⑦⑧⑨⑩|
15
口①口口 |①-②-|
④口②口 |③---|
口⑤口③ |④-⑤-|
口口⑥口 |⑥---|
16
②口③口 |①-②-|
口④口口 |③-④-|
⑤口口⑥ |⑤---|
口口⑦① |⑥-⑦-|
17
口③⑤① |①---|
④⑥口口 |②---|
口口口口 |③-④-|
②口口口 |⑤-⑥-|
18
④口⑤口 |①---|
⑥口口口 |②---|
①口②③ |③-④-|
口口口口 |⑤-⑥-|
19
口③口口 |①---|
口②①口 |②-③-|
口④口口 |--④-|
口口⑤口 |⑤---|
20
④口⑤口 |①---|
⑥口口口 |②-③-|
③口②口 |--④-|
口①口口 |⑤-⑥-|
21
口③口口 |①---|
口②①口 |②-③-|
口④口口 |--④-|
口口⑤口 |⑤---|
22
⑤口⑥口 |①---|
口口口口 |②-③-|
③口②④ |--④-|
口①口口 |⑤-⑥-|
23
口③口口 |①---|
口①口口 |②-③-|
口④②口 |--④-|
口口⑤口 |⑤---|
24
口口口口 |①---|
口⑤⑤口 |②-③-|
③口②④ |--④-|
口①口口 |⑤---|
25
②①①② |①---|
③④⑤③ |②---|
口口口口 |③---|
口口口口 |④-⑤-|
26
④口⑤口 |①---|
⑥口口口 |②-③-|
口③②口 |--④-|
口①口口 |⑤-⑥-|
27
口③口口 |①---|
口②①口 |②-③-|
口④口口 |--④-|
口口⑤口 |⑤---|
28
④口⑤口 |①---|
⑥口口口 |②-③-|
③口②口 |--④-|
口①口口 |⑤-⑥-|
29
口③口口 |①---|
口②①口 |②-③-|
口④口口 |--④-|
口口⑤口 |⑤---|
30
⑤口⑥口 |①---|
口口口口 |②-③-|
③口②④ |--④-|
口①口口 |⑤-⑥-|
31
口③口口 |①---|
口①⑤口 |②-③-|
口④②口 |--④-|
口口口口 |⑤---|
32
②口口② |①---|
①③③① |--②-|
口口口口 |----|
口口口口 |③---|
33
口口口口 |①---|
口口口口 |--②-|
③①①③ |③---|
②口口② |----|
34
口①口口 |①-②-|
口②③口 |③-④-|
口口④口
口口口口

口⑧口口
口口口⑦
⑥口口口 |⑤-⑥-|
口口⑤口 |⑦-⑧-|
35
①④口① |①---|
口口③口 |②---|
口④口口 |③---|
②②③口 |④---|
36
④口口口 |①---|
②②口③ |②---|
④口①① |③---|
口口口③ |④---|
37
口口①口 |①---|
口②口口 |--②-|
③③①口 |----|
口②口口 |③---|
38
②④④③ |①---|
口口①① |②---|
口口口口 |③---|
口口口口 |④---|
39
③口口④ |①---|
口口口② |②---|
③口口④ |③---|
口①①② |④---|
40
口③④口 |①---|
①口②口 |②---|
口③④口 |③---|
①口②口 |④---|
41
③口口③ |①---|
口①口口 |②-③-|
口口口口 |----|
②①口② |----|
42
口口口口 |①---|
②②④④ |②---|
①①③③ |③---|
口口口口 |④---|
43
②③④口 |①---|
口口口口 |②---|
②③④口 |③---|
口①①口 |④---|
44
口口口① |①---|
口④③② |②---|
口口口① |③---|
口口口口 |④---|
45
①口口② |①---|
口口口口 |--②-|
①口口② |----|
③口口③ |③---|
46
②①①② |①---|
③③③③ |--②-|
②①①② |----|
口口口口 |③---|
47
②①①② |①---|
口口口口 |--②-|
②①①② |----|
③③③③ |③---|
48
③③③③ |①---|
①①①① |--②-|
②②②② |----|
口口口口 |③---|
49
口口口口 |①---|
①口口① |--②-|
口②②口 |----|
①口口① |----|
50
口口口口 |----|
口③③口 |①---|
②口口② |②---|
口①①口 |③---|
51
①口口① |①---|
口口口口 |②---|
③①①④ |③---|
口②②口 |④---|
52
①口口② |①---|
③④⑦⑧ |②---|
⑤⑥⑨⑩ |③④⑤⑥|
口口口口 |⑦⑧⑨⑩|
53
④④②② |①---|
口口口口 |②---|
口口口口 |③---|
③③①① |④---|
54
口口②④ |①-②-|
①③口口 |③-④-|
口口②④ |----|
口口口口 |----|
55
口口⑥口 |①-②-|
口口②① |③-④-|
④③口口 |⑤---|
口口⑤口 |⑥---|
56
口②口口 |①---|
口口③口 |②-③-|
④⑤⑥口 |--④-|
口①口口 |⑤-⑥-|
57
口口口④ |①---|
②③⑥⑤ |②-③-|
口口口④ |④---|
①口口① |⑤-⑥-|
58
①③④口 |①---|
口口口口 |②-③-|
③①口④ |--④-|
口②②口 |----|
59
①口口② |①---|
⑦③⑤口 |②-③-|
口⑥④口 |④-⑤-|
②口口① |⑥-⑦-|
60
口②③口 |①-②-|
口④口① |③-④-|
⑥口口⑤ |⑤-⑥-|
口⑧口⑦ |⑦-⑧-|
61
③口口② |①-②-|
口口口① |--③-|
⑤④②口 |④---|
④⑤①口 |⑤---|
62
④④⑦⑧ |①-②-|
②②口口 |③-④-|
⑥⑤③③ |⑤-⑥-|
口口①① |⑦-⑧-|
63
口口口口 |①-②-|
①②③④ |③-④-|
⑧⑦⑥⑤ |⑤-⑥-|
口口口口 |⑦-⑧-|
64
①口口② |①---|
④⑤⑥口 |②-③-|
口口口③ |--④-|
口口口口 |⑤-⑥-|
65
③口口⑥ |①-②-|
⑤口口② |③---|
口⑦口口 |④-⑤-|
口①④口 |⑥-⑦-|
66
口口口口 |①---|
口②③口 |②-③-|
口口①口 |--④-|
④口口④ |----|
67
口①②口 |①---|
③口口口 |②-③-|
④口口⑦ |④-⑤-|
口⑤⑥口 |⑥-⑦-|
68
口口⑤口 |①---|
口④口① |②---|
口口⑤口 |③---|
②④口③ |④-⑤-|
69
③①④② |①---|
口口口口 |②---|
口口口口 |③---|
口口口口 |④---|
70
⑤②⑤④ |①-②-|
①口③口 |--③-|
口②口④ |④---|
①口③口 |⑤---|
71
⑤②⑤④ |①-②-|
①口③口 |--③-|
口②口④ |④---|
①口③口 |⑤---|
72
口口④口 |----|
①③口② |①---|
①口④② |②---|
口③口口 |③-④-|
73
②口口口 |----|
口口口口 |①---|
口口口口 |----|
口口口① |②---|
74
⑤②⑤④ |①-②-|
①口③口 |--③-|
口②口④ |④---|
①口③口 |⑤---|
75
⑤②⑤④ |①-②-|
①口③口 |--③-|
口②口④ |④---|
①口③口 |⑤---|
76
口口④口 |----|
①③口② |①---|
①口④② |②---|
口③口口 |③-④-|
77
③①④② |①---|
口口口口 |②---|
口口口口 |③---|
口口口口 |④---|
78
⑤②⑤④ |①-②-|
①口③口 |--③-|
口②口④ |④---|
①口③口 |⑤---|
79
⑤②⑤④ |①-②-|
①口③口 |--③-|
口②口④ |④---|
①口③口 |⑤---|
80
口口④口 |----|
①③口② |①---|
①口④② |②---|
口③口口 |③-④-|
81
③②④① |①---|
口口口口 |②---|
口口口口 |③---|
口口口口 |④---|
82
⑤④⑤② |①-②-|
③口①口 |--③-|
口④口② |④---|
③口①口 |⑤---|
83
⑥④⑥② |①-②-|
③口①口 |--③-|
口④口② |④---|
③⑤①⑤ |⑤-⑥-|


不确定度: 0

タグ:

+ タグ編集
  • タグ:

このサイトはreCAPTCHAによって保護されており、Googleの プライバシーポリシー利用規約 が適用されます。

最終更新:2012年11月10日 14:29