ディアブロ
水曜日のカンパネラ

ADVANCED

Level: 6
BPM: 106-133
Notes: 530

BPM: 106
1
口口口口 |----|
口口口口 |----|
口口口口 |----|
口口口口 |----|
2
⑭②①口 |①②③④⑤⑥|
⑫④③⑬ |⑦---|
⑩⑥⑤⑪ |⑧⑨⑩⑪⑫⑬|
⑧口⑦⑨ |⑭---|
3
口②⑤口 |①-②③④-⑤-|
口③口口 |⑥-⑦-⑧-|
⑧④口口
⑥口①⑦

口口⑪口
口口⑩口
口口口⑨ |⑨-⑩-|
口口口口 |⑪---|
4
口口口② |①---|
口口口口 |----|
口口口口 |----|
口①①口 |②---|
5
口口口② |①---|
口口口口 |----|
口口口口 |----|
口①①口 |②---|
6
口口口② |①---|
口口口口 |②---|
口口口口
①①①①

口口口④
口口口口
口口口口 |③---|
③③③③ |④---|
7
④④④④ |①---|
③③③③ |②---|
②②②② |③---|
①①①① |④---|
8
⑤②②⑤ |①---|
④口口④ |②---|
③口口③ |③-④-|
口①①口 |⑤---|
9
③口口③ |①---|
④②①④ |②---|
⑤②①⑤ |③-④-|
口口口口 |⑤---|
10
⑤②②⑤ |①---|
④口口④ |②---|
③口口③ |③-④-|
口①①口 |⑤---|
11
③口口③ |①---|
④②①④ |②---|
⑤②①⑤ |③-④-|
口口口口 |⑤---|
12
口口口口 |①---|
口②③口 |②-③-|
口口口口
①①①①

口口口口
口⑥口口
口口⑤口 |④---|
④④④④ |⑤⑥--|
13
④④④④ |①---|
③③③③ |②---|
②②②② |③---|
①①①① |④---|
14
口口口口 |①-②-|
⑧⑥④② |③-④-|
口口口口 |⑤-⑥-|
⑦⑤③① |⑦-⑧-|
15
口①①口 |-①--|
④⑤⑤③ |②---|
②⑤⑤② |③-④-|
③口口④ |⑤---|
16
口①①口 |-①--|
④⑤⑤③ |②---|
②⑤⑤② |③-④-|
③口口④ |⑤---|
17
①口口① |①---|
④⑤⑤③ |②---|
②⑤⑤② |③-④-|
③口口④ |⑤---|
18
①口口② |①-②-|
③口⑨④ |③-④-|
⑤⑧口⑥ |⑤-⑥-|
口口⑦口 |-⑦⑧⑨|
19
①①口② |①---|
②⑤⑤③ |②-③-④-|
③⑤⑤④ |⑤---|
④口口口 |----|

BPM: 133
20
口⑦⑧口 |①-②-|
口⑤⑥口 |③-④-|
口③④口 |⑤-⑥-|
口①②口 |⑦-⑧-|
21
口口口口 |--①-|
口⑤④③ |--②-|
口②口口 |③-④-|
口口①口 |⑤---|
22
⑦口口⑧ |①-②-|
⑤口口⑥ |③-④-|
③口口④ |⑤-⑥-|
①口口② |⑦-⑧-|
23
口⑦口口 |①-②-|
口⑤⑥口 |③-④-|
口③④口 |⑤-⑥-|
口①②口 |⑦---|
24
口口⑥⑤ |①-②-|
⑦⑧口口 |③-④-|
③④口口 |⑤-⑥-|
口口②① |⑦-⑧-|
25
⑦⑧口口 |①-②-|
口口⑥⑤ |③-④-|
口口②① |⑤-⑥-|
③④口口 |⑦-⑧-|
26
口⑧⑦口 |①-②-|
口⑥⑤口 |③-④-|
口④③口 |⑤-⑥-|
口②①口 |⑦-⑧-|
27
④口⑥口 |①-②-|
⑥⑤⑤③ |③-④-|
②⑤⑤⑥ |⑤---|
口⑥口① |⑥---|
28
口④⑤口 |①-②-|
口⑥③口 |③-④-|
口②⑦口 |⑤-⑥-|
口⑧①口 |⑦-⑧-|
29
④口口⑤ |①-②-|
⑥口口③ |③-④-|
②口口⑦ |⑤-⑥-|
⑧口口① |⑦-⑧-|
30
⑧口口⑦ |①-②-|
口④③口 |③-④-|
口②①口 |⑤-⑥-|
⑥口口⑤ |⑦-⑧-|
31
口口口口 |①-②-|
口④③口 |③-④-|
②⑧⑦① |⑤-⑥-|
口⑥⑤口 |⑦-⑧-|
32
①②口口 |①-②-|
口口④③ |③-④-|
⑤⑥口口 |⑤-⑥-|
口⑦⑦口 |⑦---|
33
口口②① |①-②-|
③④口口 |③-④-|
口口⑥⑤ |⑤-⑥-|
⑦⑧口口 |⑦-⑧-|
34
口①①口 |--①-|
口②②口 |②---|
④口口④ |③---|
③口口③ |④---|
35
口①①口 |①---|
口②②口 |②---|
口③③口 |③---|
口④④口 |④---|
36
口⑤口口 |①-②-|
③口⑥④ |③-④-|
①⑦口② |⑤-⑥-|
口口⑧口 |⑦-⑧-|
37
口口⑤口 |①-②-|
④⑥口③ |③-④-|
②口⑦① |⑤-⑥-|
口口口口 |⑦---|
38
口⑤口口 |①-②-|
③口⑥④ |③-④-|
①⑦口② |⑤-⑥-|
口口⑧口 |⑦-⑧-|
39
口口⑤口 |①-②-|
④⑥口③ |③-④-|
②口⑦① |⑤-⑥-|
口⑧口口 |⑦-⑧-|
40
⑤口口④ |①-②-|
⑥口口③ |③-④-|
⑦口口② |⑤-⑥-|
⑧口口① |⑦-⑧-|
41
口⑤④口 |①-②-|
口⑥③口 |③-④-|
口⑦②口 |⑤-⑥-|
口⑧①口 |⑦-⑧-|
42
①口口① |--①-|
②口口② |②-③-|
③口口③
口口口口

⑦④④⑦
口⑤⑤口
口⑥⑥口 |④-⑤-|
口口口口 |⑥-⑦-|
43
口④④口 |①-②-|
③口口③ |③-④-|
②口口②
①口口①

⑦口口⑦
口⑦⑦口
口口口口 |⑤-⑥-|
⑥⑤⑤⑥ |⑦---|
44
④①②③ |①---|
口⑤⑤口 |②---|
口⑤⑤口 |③--④|
③口口④ |--⑤-|
45
④口口③ |①---|
口⑤⑤口 |②---|
口⑤⑤口 |③--④|
③①②④ |--⑤-|
46
④口口③ |①---|
口⑤⑤② |②---|
口⑤⑤① |③--④|
③口口④ |--⑤-|
47
④口口③ |①---|
②⑤⑤口 |②---|
①⑤⑤口 |③--④|
③口口④ |--⑤-|
48
④②①③ |①---|
口⑤⑤口 |②---|
口⑤⑤口 |③--④|
③口口④ |--⑤-|
49
④口口③ |①---|
口⑤⑤口 |②---|
口⑤⑤口 |③--④|
③②①④ |--⑤-|
50
④口口③ |①---|
口⑤⑤② |②---|
口⑤⑤① |③--④|
③口口④ |--⑤-|
51
口①②口 |①---|
①③④② |②---|
③口口④ |③---|
口口口口 |④---|
52
②④⑤① |①--②|
口③③口 |--③-|
口③③口 |④---|
①口口② |⑤---|
53
口口口① |①---|
口口口② |②---|
口口口③ |③---|
口口口④ |④---|
54
口口口口 |①---|
口口口口 |②---|
④口口口 |③---|
③②①口 |④---|
55
②③④口 |①---|
①口口口 |②---|
口口口口 |③---|
口口口口 |④---|
56
④口口④ |①--②|
口①口口 |--③-|
口口②口 |----|
口③口口 |--④-|
57
口口口口 |--①-|
①口口① |--②-|
②口口② |--③-|
③口口③ |----|
58
⑦①口⑦ |①-②-|
⑥口②⑥ |③-④-|
⑤③口⑤ |⑤-⑥-|
口口④口 |⑦---|
59
④口⑥口 |①-②-|
⑥⑤⑤③ |③-④-|
②⑤⑤⑥ |⑤---|
口⑥口① |⑥---|
60
①口口① |①---|
口口口口 |----|
口口口口 |----|
口口口口 |----|

不確定度: 0

最終更新:2016年07月27日 16:05