ディアブロ
水曜日のカンパネラ

EXTREME

Level: 9
BPM: 106-133
Notes: 783

BPM: 106
1
口口口口 |----|
口口口口 |----|
口口口口 |----|
口口口口 |----|
2
⑭②①口 |①②③④⑤⑥|
⑫④③⑬ |⑦---|
⑩⑥⑤⑪ |⑧⑨⑩⑪⑫⑬|
⑧口⑦⑨ |⑭---|
3
⑩口口⑪ |①-②③④-⑤-|
⑨⑧⑦⑥ |⑥-⑦-⑧-|
口口①⑤ |⑨-⑩-|
②③④口 |⑪---|
4
口口口口 |①---|
②③口口 |--②③|
口口口口
口①①口

口口口口
口口口④
口口口口 |--④-|
口⑤⑤口 |⑤---|
5
①口②③ |①-②③|
⑤④口口 |--④⑤|
口⑥⑥口 |--⑥-|
口⑦⑦口 |⑦---|
6
①①①① |①--②|
口③②口 |③----④⑤-|
口③口口
口⑤④口

⑥⑥⑥⑥
口⑧⑨口
⑩⑧⑦口 |⑥-⑦-|
口口口⑪ |⑧⑨⑩⑪|
7
①①①① |①-②③④-⑤-|
口⑧⑦⑥ |⑥-⑦-⑧-|
口口口⑤
②③④口

⑩口口⑪
⑨口口口
口口口口 |⑨-⑩-|
口口口口 |⑪---|
8
口②口口 |①-②-|
口口③② |③-④-|
③④口口
口①①④

⑦⑥⑦⑥
口口口口
⑧口口⑧ |⑤-⑥⑦|
口⑤⑤口 |⑧---|
9
口口口口 |①②③④|
⑥⑦⑧① |⑤⑥⑦⑧|
口②③口
口④⑤口

⑫口口⑩
口口口口
⑪⑬⑬⑨ |⑨⑩⑪⑫|
口口口口 |⑬---|
10
口口②口 |①-②-|
②③口口 |③-④-|
口口④③
④①①口

⑥⑦⑥⑦
口口口口
⑧口口⑧ |⑤-⑥⑦|
口⑤⑤口 |⑧---|
11
口口口口 |①②③④|
①⑧⑦⑥ |⑤⑥⑦⑧|
口③②口
口⑤④口

⑩口口⑫
口口口口
⑨⑬⑬⑪ |⑨⑩⑪⑫|
口口口口 |⑬---|
12
④⑥⑤口 |①②③④|
口口口③ |⑤-⑥-|
②⑥⑤口
①①①①

⑫口⑪⑩
⑨⑫口⑪
口⑬⑬⑧ |⑦⑧⑨⑩|
⑦⑦⑦⑦ |⑪⑫-⑬|
13
口⑥⑤口 |①②③-|
口口③口 |④-⑤⑥|
④口口②
①①①①

⑦口口⑦
⑧口口⑧
⑨口口⑨ |⑦-⑧-|
口口口口 |⑨---|
14
口口口⑧ |①②③④|
口口口④ |⑤⑥⑦⑧|
⑤⑥⑦口
①②③口

⑨口⑩口
⑪口⑫口
口口口口 |⑨⑩⑪⑫|
⑯⑮⑭⑬ |⑬⑭⑮⑯|
15
口①①② |-①-②|
口③③口 |③-④⑤|
口①①口
口④⑤口

⑥口口⑧
口口⑧⑦
⑥⑧口口 |⑥-⑦-|
⑧口口⑦ |⑧---|
16
口①口口 |-①②③|
⑥口口④ |④⑤⑥⑦|
口口②口
⑤③口⑦

口⑩⑩口
口⑧口口
⑧⑩⑩⑨ |⑧-⑨-|
口口⑨口 |⑩---|
17
②口⑦① |①②-③|
口口口④ |④---⑤-⑥--⑦--|
口⑤⑥口
口③③口

口⑧口口
⑧口⑨口
口口口⑨ |⑧-⑨-|
口⑩⑩口 |⑩---|
18
口⑥口① |①-②③-④|
口⑦④⑤ |⑤⑥⑦⑧|
③②口口
口口⑧口

⑪口口⑩
⑫口口⑫
⑬口⑨⑬ |⑨⑩-⑪|
⑩⑭⑭⑪ |-⑫⑬⑭|
19
③①①② |①---|
口①①口 |②-③-④-|
口④④口
②口口③

口⑩⑪口
⑦⑤⑤⑨
⑥口口⑧ |⑤-⑥⑦-⑧|
口⑫口口 |⑨⑩⑪⑫|

BPM: 133
20
⑤⑭⑮⑯ |①②③④|
⑥③④⑩ |⑤⑥⑦⑧|
⑦①②⑨ |⑨⑩⑪⑫|
⑪⑫⑬⑧ |⑬⑭⑮⑯|
21
⑤口口口 |-①②③|
①口④口 |④⑤⑥⑦|
口③口⑥
⑦口口②

口口口⑩
口⑨口口
口口⑧口 |⑧⑨⑩⑪|
口⑪口⑫ |⑫---|
22
⑤口⑤口 |①②③④|
口④①口 |⑤-⑥-|
口②③口
口⑥口⑥

口口口口
⑧⑭⑬⑦
⑩⑫⑪⑨ |⑦⑧⑨⑩|
口口口口 |⑪⑫⑬⑭|
23
②⑥⑤① |①②③④|
⑪⑫⑩⑨ |⑤⑥⑦⑧|
口口口口 |⑨⑩-⑪|
④⑧⑦③ |⑫---|
24
①②⑮⑦ |①②③④|
⑨⑩⑯⑧ |⑤⑥⑦⑧|
⑬⑭⑫④ |⑨⑩⑪⑫|
⑤⑥⑪③ |⑬⑭⑮⑯|
25
②口口② |-①-②|
口③口口 |-③④⑤|
口口④口
①⑤口①

⑫⑩⑩⑫
⑦口⑪⑥
⑨⑪口⑧ |⑥⑦⑧⑨|
口口口口 |⑩-⑪⑫|
26
口口⑤口 |-①②③|
口⑥口④ |④-⑤⑥|
口口④口
③①②口

⑫⑩口⑪
口口⑨口
⑧口口口 |⑦⑧⑨⑩|
⑭口⑬⑦ |⑪⑫⑬⑭|
27
⑥⑦①⑦ |①-②-|
②口⑤⑥ |③④⑤-|
⑥④③① |⑥---|
⑦②⑦⑥ |⑦---|
28
①口①口 |--①-|
口口口口 |②③④-|
口④③②
口口口口

口⑨⑩⑪
⑤⑤⑤⑤
口口口口 |⑤-⑥⑦|
⑥⑦⑧口 |⑧⑨⑩⑪|
29
①⑥⑥⑫ |-①②③|
④②⑦④ |④-⑤-|
⑤⑧③⑤ |⑥⑦⑧⑨|
⑪口⑨⑩ |-⑩⑪⑫|
30
①口口口 |①-②-|
口口口口 |③-④-|
②④②③
口②口口

口⑤⑤口
口⑥⑦口
口口口口 |⑤⑥-⑦|
口⑧⑧口 |-⑧--|
31
②⑤⑤① |①-②-|
②⑤⑤① |③-④-|
④⑤⑤③ |⑤---|
④⑤⑤③ |----|
32
②⑩⑩① |①②③④|
④⑨⑨③ |⑤-⑥⑦|
口⑧⑧⑤ |⑧-⑨-|
⑦⑪⑪⑥ |⑩--⑪|
33
①⑧⑧② |--①②|
③⑦⑦口 |③-④⑤|
④⑥⑥⑤ |⑥-⑦-|
⑨口口⑨ |⑧-⑨-|
34
①口口① |--①-|
口②②口 |②---|
①②②①
口口口口

口口口口
④口口④
⑥⑦⑧口 |③--④--⑤-|
⑤③③⑤ |-⑥-⑦-⑧--|
35
口③②① |①-②-③-|
④⑤⑥口 |④-⑤-⑥⑦|
口口口口
⑦⑦⑦⑦

⑧口口⑧
口口口口
⑧口口⑧ |----|
口口口口 |⑧---|
36
⑦①口⑥ |-①②③|
⑨⑤②⑧ |④-⑤-|
⑪③口⑩ |⑥⑦⑧⑨|
口口④⑫ |⑩⑪⑫-|
37
⑦口口⑥ |①②③④|
口⑤口口 |⑤-⑥⑦|
口③④口
口①②口

口⑪⑨口
口口口口
⑩口口⑧ |⑧⑨⑩⑪|
口⑫⑫口 |⑫---|
38
①口口口 |-①②③|
③口口② |④⑤⑥⑦|
⑤口口④
⑦口口⑥

⑬⑬⑫⑫
口口口口
口⑪⑩口 |⑧⑨⑩⑪|
口⑨⑧口 |⑫-⑬-|
39
⑫⑫⑪⑪ |--①②|
②口口① |③④⑤⑥|
④⑩⑨③ |⑦⑧⑨⑩|
⑥⑧⑦⑤ |⑪-⑫-|
40
口口口口 |①②③④|
②口口③ |⑤⑥⑦⑧|
④⑧口⑤
⑥口⑦①

⑭口⑬⑨
⑭⑩⑬口
口口⑪口 |⑨⑩⑪⑫|
口⑫口口 |⑬-⑭-|
41
口口口⑥ |-①-②|
口⑤口④ |③④⑤⑥|
口③口口
①口②①

口⑦口口
⑦口⑧口
⑨口⑩⑧ |⑦-⑧-|
口⑨口⑩ |⑨-⑩-|
42
①口①口 |--①-|
③口③口 |②-③-|
口③口③
②口②口

⑧④⑦④
口⑥口⑥
⑥口⑥口 |④-⑤-|
口⑤口⑤ |⑥-⑦⑧|
43
口口口口 |①-②-|
口口口口 |③④⑤-|
口口口①
⑤③②④

⑦⑥⑦⑥
⑧⑧⑧⑧
⑧⑧⑧⑧ |⑥-⑦-|
口口口口 |⑧---|
44
口口口口 |①---|
口口口口 |②---|
口口口口
口口②①

口口③④
口口④③
口口口口 |③--④|
⑤③⑥⑥ |⑤-⑥-|
45
③⑤口③ |①---|
②口③口 |②---|
①口④口 |③--④|
⑥⑥口④ |⑤-⑥-|
46
⑥⑥①② |①---|
口口口③ |②---|
③④口⑤ |③--④|
④③口口 |⑤-⑥-|
47
口口口口 |①---|
口口口口 |②---|
口口口口
口口②①

口口④③
口口③④
口口口口 |③--④|
⑤③⑥⑥ |⑤-⑥-|
48
③⑤口口 |①---|
②口口口 |②---|
①口④③ |③--④|
⑥⑥③④ |⑤-⑥-|
49
口口①② |①---|
口口口口 |②---|
口口口口
口口口口

口③⑥⑥
③口口③
④口口⑤ |③--④|
口④口口 |⑤-⑥-|
50
口口口口 |①---|
口口口口 |②---|
口口口口
口口②①

口口③④
口口④③
口口口口 |③--④|
⑤③⑥⑥ |⑤-⑥-|
51
③④口③ |①---|
②口口② |②---|
①口口① |③---|
口口④口 |④---|
52
②口①③ |①--②|
口②口⑤ |③-④-|
①⑦口⑥ |⑤---|
口①④④ |⑥-⑦-|
53
口口口口 |①---|
口口③口 |②-③-|
口口⑥口 |④---|
⑤④②① |⑤-⑥-|
54
④⑤口口 |①---|
②口口口 |②-③-|
①③⑥口 |④---|
口口口口 |⑤-⑥-|
55
口口①② |①---|
②①口③ |②---|
③口口④ |③---|
④④口④ |④---|
56
口①口口 |①--②|
口口②口 |--③-|
口③口口
口口口口

口④④口
口口口口
口口口口 |----|
口口口口 |--④-|
57
口口口口 |--①-|
口①①口 |--②-|
口②②口 |--③-|
口③③口 |----|
58
④口口⑤ |①②③④|
口口⑤③ |⑤-⑥⑦|
②⑥⑦口
口口口①

口⑧口口
⑧口口⑪
⑩口口口 |⑧-⑨⑩|
口口口⑨ |⑪---|
59
⑥⑦①⑦ |①-②-|
②口⑤⑥ |③④⑤-|
⑥④③① |⑥---|
⑦②⑦⑥ |⑦---|
60
口口口口 |①---|
口①①口 |----|
口①①口 |----|
口口口口 |----|

不確定度: 0

最終更新:2016年07月27日 16:04