Famous Day
[Alexandros]

BASIC

Level: 3
BPM: 180
Notes: 305

1
口口口口 |----|
口口口口 |----|
口口口口 |----|
口口口口 |----|
2
口口口口 |①---|
①口口② |②---|
口口口口 |----|
口口口口 |----|
3
口口口口 |----|
口口口口 |----|
口口口口 |----|
口口口口 |----|
4
口口口口 |①---|
口口口口 |②---|
①口口② |----|
口口口口 |----|
5
口口口口 |----|
口口口口 |----|
口口口口 |----|
口口口口 |----|
6
口口口口 |①---|
①口口② |②---|
口口口口 |----|
口口口口 |----|
7
口口口口 |①---|
口②②口 |----|
口①①口 |②---|
口口口口 |----|
8
①口口② |①---|
口口口口 |②---|
口口口口 |----|
口口口口 |----|
9
口口口口 |①---|
①②③④ |②---|
口口口口 |③---|
口口口口 |④---|
10
口口口口 |①---|
口口口口 |②---|
②④口口 |③---|
①③口口 |④---|
11
口口口口 |①---|
口口口口 |②---|
口口②④ |③---|
口口①③ |④---|
12
①②口口 |①---|
③④口口 |②---|
口口口口 |③---|
口口口口 |④---|
13
口口③④ |①---|
口口①② |②---|
口口口口 |③---|
口口口口 |④---|
14
口口口口 |①---|
口口口口 |②---|
①②③④ |③---|
口口口口 |④---|
15
口口口口 |①---|
口口口口 |②---|
口口口口 |③---|
①②③④ |④---|
16
口①①口 |①---|
口②②口 |----|
③口口口 |②---|
口口口口 |--③-|
17
口口口口 |--①-|
口口口③ |--②-|
口①②口 |--③-|
口口口口 |----|
18
口①①口 |①---|
口②②口 |----|
口口口口 |②---|
口口口③ |--③-|
19
口口口口 |--①-|
口口口口 |--②-|
③口口口 |--③-|
口②①口 |----|
20
①口口① |①---|
②口口② |----|
口口口口 |②---|
口口口口 |----|
21
口口口口 |①---|
口④④口 |②---|
①③③① |③---|
口②②口 |④---|
22
①口口① |①---|
口口口口 |②-③-|
口口口口 |----|
口②③口 |----|
23
口口口口 |----|
口口口口 |----|
口口口口 |----|
口口口口 |----|
24
口口口口 |①---|
③口口口 |----|
口②②口 |②---|
口①①口 |--③-|
25
口口口口 |--①-|
口①②口 |--②-|
口口③口 |--③-|
口口口口 |----|
26
口口口③ |①---|
口口口口 |----|
口②②口 |②---|
口①①口 |--③-|
27
口②①口 |--①-|
口口口口 |--②-|
口③口口 |--③-|
口口口口 |----|
28
口口口口 |①---|
①口口① |----|
②口口② |②---|
口口口口 |----|
29
口口口口 |①---|
①②③④ |②---|
口口口口 |③---|
口口口口 |④---|
30
口①①口 |①---|
口口口口 |----|
口①①口 |----|
口口口口 |----|
31
口口口口 |----|
口口口口 |----|
口口口口 |----|
口口口口 |----|
32
①口口口 |①---|
口②口口 |----|
口口口口 |②---|
口口口口 |----|
33
口口口口 |①---|
口口口口 |----|
口口①口 |②---|
口口口② |----|
34
口口口① |①---|
口口②口 |----|
口口口口 |②---|
口口口口 |----|
35
口口口口 |①---|
口口口口 |----|
③①口口 |②---|
②口口口 |③---|
36
②口④口 |①---|
①口口口 |②---|
口口③口 |③---|
口口口口 |④---|
37
口④口④ |①---|
口③口③ |②---|
口②口② |③---|
口①口① |④---|
38
口口口口 |①---|
①口①口 |----|
①口①口 |----|
口口口口 |----|
39
口口口口 |----|
口口口口 |----|
口口口口 |----|
口口口口 |----|
40
①口口口 |①---|
口②口口 |----|
口口口口 |②---|
口口口口 |----|
41
口口①口 |①---|
口口口口 |----|
口口口口 |②---|
口口口② |----|
42
口口口① |①---|
口口②口 |----|
口口口口 |②---|
口口口口 |----|
43
口①口口 |①---|
口口口口 |----|
③口口口 |②---|
②口口口 |③---|
44
②口④口 |①---|
①口口口 |②---|
口口③口 |③---|
口口口口 |④---|
45
口④口④ |①---|
口③口③ |②---|
口②口② |③---|
口①口① |④---|
46
①口①口 |①---|
②口③口 |②---|
①口①口 |③---|
口口口口 |----|
47
口①口① |①---|
口②口③ |②---|
口①口① |③---|
口口口口 |----|
48
口④④口 |①---|
口③③口 |②---|
口②②口 |③---|
口①①口 |④---|
49
④口口④ |①---|
③口口③ |②---|
②口口② |③---|
①口口① |④---|
50
口②①口 |①---|
口口口口 |----|
口口口口 |②---|
口①②口 |----|
51
②口口① |①---|
口口口口 |----|
口口口口 |②---|
①口口② |----|
52
口口口口 |①---|
③口①③ |----|
②①口② |②---|
口口口口 |③---|
53
口口口口 |①-②-|
口⑤口口 |③-④-|
口③④口 |⑤---|
⑥①②⑥ |⑥---|
54
①口口① |①---|
②口口② |②---|
③口口③ |③---|
④口口④ |④---|
55
口③口口 |①---|
口①②口 |②---|
口②①口 |③---|
口口③口 |----|
56
④口③口 |①---|
②①口口 |②---|
口口①② |③---|
口③口④ |④---|
57
口口口④ |①---|
③②②口 |②---|
口①①③ |③---|
④口口口 |④---|
58
口口口口 |①---|
②口口② |----|
口①①口 |②---|
口口口口 |----|
59
①②②① |①---|
口口口口 |----|
①②②① |②---|
口口口口 |----|
60
口口口口 |①---|
①①①① |----|
口④⑤口 |②-③-|
口②③口 |④-⑤-|
61
②口口② |①---|
④口口④ |②---|
①口口① |③---|
③口口③ |④---|
62
口口口口 |①---|
口口口口 |----|
口口口口 |----|
口①①口 |----|
63
①口口① |①---|
口口口口 |----|
口口口口 |----|
口口口口 |----|
64
口口口口 |①---|
口口口口 |----|
①口口① |----|
口口口口 |----|
65
口口口口 |①---|
口口口口 |②---|
①②③④ |③---|
口口口口 |④---|
66
口口口口 |①---|
④③②① |②---|
口口口口 |③---|
口口口口 |④---|
67
②④口口 |①---|
口口口口 |②---|
①③口口 |③---|
口口口口 |④---|
68
口口④② |①---|
口口口口 |②---|
口口③① |③---|
口口口口 |④---|
69
④口口④ |①---|
③口口③ |②---|
②口口② |③---|
①口口① |④---|
70
口①①口 |①---|
口口口口 |----|
口口口口 |----|
口口口口 |----|
71
口口口口 |①---|
口①①口 |----|
口口口口 |----|
口口口口 |----|
72
口口口口 |①---|
口口口口 |----|
口①①口 |----|
口口口口 |----|
73
口口口口 |①---|
①②③④ |②---|
口口口口 |③---|
口口口口 |④---|
74
口口口口 |①---|
口口口口 |②---|
④③②① |③---|
口口口口 |④---|
75
口口口口 |①---|
①②③④ |②---|
口口口口 |③---|
口口口口 |④---|
76
①口口① |①---|
口口口口 |----|
口口口口 |----|
口口口口 |----|
77
口口口口 |----|
口口口口 |----|
口口口口 |----|
口口口口 |----|
78
口口口口 |①---|
口口口口 |----|
口①①口 |----|
口口口口 |----|

不確定度: 0

最終更新:2016年07月27日 15:40