DesireDrive
岸田教団&THE明星ロケッツ

BASIC

Level: 4
BPM: 184
Notes: 310

1
口口口口 |----|
口口口口 |----|
口口口口 |----|
口口口口 |----|
2
口口口口 |①---|
口口口口 |----|
口口口口 |----|
口①①口 |----|
3
口口口口 |----|
口口口口 |----|
口口口口 |----|
口口口口 |----|
4
口口口口 |----|
口口口口 |----|
口口口口 |----|
口口口口 |----|
5
口口口口 |----|
口口口口 |----|
口口口口 |----|
口口口口 |----|
6
口口口口 |①---|
口口②① |----|
口口口口 |②---|
口口口口 |----|
7
口口口口 |①---|
②①口口 |----|
口口口口 |②---|
口口口口 |----|
8
口口口口 |①---|
口口口口 |----|
口①①口 |----|
口口口口 |----|
9
口口口口 |----|
①口口① |----|
②口口② |①---|
口口口口 |②---|
10
口口①口 |①---|
口②口口 |②---|
口口③口 |③---|
口④口口 |④---|
11
口口口④ |①---|
口口口③ |②---|
口口口② |③---|
口口口① |④---|
12
口①口口 |①---|
口口②口 |②---|
口③口口 |③---|
口口④口 |④---|
13
④口口口 |①---|
③口口口 |②---|
②口口口 |③---|
①口口口 |④---|
14
口口①口 |①---|
口②口口 |②---|
口口③口 |③---|
口④口口 |④---|
15
口口口④ |①---|
口口口③ |②---|
口口口② |③---|
口口口① |④---|
16
口口口口 |①---|
口①②口 |②---|
口③④口 |③---|
口口口口 |④---|
17
口口口口 |①---|
①口口① |----|
②口口② |②---|
口口口口 |----|
18
口口口口 |①---|
口口口口 |----|
口②口口 |②---|
口①口口 |----|
19
口②口口 |①---|
口①口口 |----|
口口口口 |②---|
口口口口 |----|
20
口口①口 |①---|
口口②口 |----|
口口口口 |②---|
口口口口 |----|
21
口口口口 |①---|
口口口口 |----|
口口①口 |②---|
口口②口 |----|
22
口口口口 |①---|
口口口口 |----|
口②口口 |②---|
口①口口 |----|
23
口②口口 |①---|
口①口口 |----|
口口口口 |②---|
口口口口 |----|
24
口口①口 |①---|
口口②口 |----|
口口口口 |②---|
口口口口 |----|
25
口口口口 |①---|
口口口口 |----|
口口①口 |②---|
口口②口 |----|
26
口口口口 |①---|
口②口④ |②---|
①口③口 |③---|
口口口口 |④---|
27
口口口口 |①---|
④口②口 |②---|
口③口① |③---|
口口口口 |④---|
28
口②②口 |①---|
口口口口 |----|
口口口口 |②---|
口①①口 |----|
29
②口口② |①---|
口口口口 |----|
口口口口 |②---|
①口口① |----|
30
②③口口 |①---|
口①①口 |----|
口①①口 |②---|
口口口口 |③---|
31
口口①口 |①---|
口口②口 |----|
口口口口 |②---|
口口口口 |----|
32
②口③② |①---|
口口口口 |----|
口口①口 |②---|
口口口口 |--③-|
33
口口口口 |--①-|
口①口口 |--②-|
口口②口 |--③-|
口③口口 |----|
34
口口口口 |①---|
①②①② |----|
口口口口 |②---|
口口口口 |----|
35
口口口口 |①---|
口口口口 |----|
①②①② |②---|
口口口口 |----|
36
口口口口 |①---|
口口口口 |----|
口口口口 |----|
口①①口 |----|
37
口口口口 |①---|
口口③口 |②---|
口②①口 |③---|
口口口口 |----|
38
口口口口 |①---|
②①②① |----|
口口口口 |②---|
口口口口 |----|
39
口口口口 |①---|
口口口口 |----|
②①②① |②---|
口口口口 |----|
40
口口口口 |①---|
口口口口 |----|
②③③② |②---|
口①①口 |--③-|
41
口口口口 |----|
①口口① |----|
口口口口 |①---|
口口口口 |----|
42
①①①① |①---|
④口②④ |②---|
口口③口 |③---|
口口口口 |--④-|
43
③口口③ |----|
口口口口 |①---|
口①口口 |②---|
口②口口 |--③-|
44
口口口口 |----|
口口③口 |①---|
口②①口 |②---|
口口口口 |③---|
45
口③②口 |①---|
口①口口 |②---|
口口口口 |③---|
口口口口 |----|
46
④口口④ |①---|
口口③口 |②---|
口口②口 |③---|
①口口① |--④-|
47
口口口口 |----|
②口口② |--①-|
①口口① |----|
口口口口 |--②-|
48
口口口口 |----|
口口口口 |----|
口①①口 |----|
口口口口 |--①-|
49
口口口口 |----|
口口口口 |----|
口口口口 |----|
口口口口 |----|
50
①口口口 |①---|
①口口口 |----|
口口口口 |----|
口口口口 |----|
51
口①口口 |①---|
口口口口 |----|
口口口口 |----|
口口口口 |----|
52
口口①口 |①---|
口口口口 |----|
口口口口 |----|
口口口口 |----|
53
口口口① |①---|
口口口口 |----|
口口口口 |----|
口口口口 |----|
54
口口口口 |①---|
①口口口 |--②-|
口②口口 |----|
口口口口 |----|
55
口口口口 |①---|
口口口① |--②-|
口口②口 |----|
口口口口 |----|
56
口口口口 |①---|
①口口口 |--②-|
口②口口 |----|
口口口口 |----|
57
口口口口 |①---|
③口口③ |----|
口②②口 |②---|
口①①口 |--③-|
58
口①口口 |----|
口③②口 |①---|
口口口口 |②---|
口口口口 |③---|
59
口口口口 |①---|
口口口口 |②---|
口②①口 |③---|
口④③口 |④---|
60
口口口口 |①---|
口口口口 |②---|
④口口③ |③---|
②口口① |④---|
61
④口口③ |①---|
②口口① |②---|
口口口口 |③---|
口口口口 |④---|
62
口②①口 |①---|
口④③口 |②---|
口口口口 |③---|
口口口口 |④---|
63
口口口口 |①---|
口口口口 |②---|
口②①口 |③---|
口④③口 |④---|
64
口口口口 |①---|
口口口口 |②---|
④口口③ |③---|
②口口① |④---|
65
④口口③ |①---|
②口口① |②---|
口口口口 |③---|
口口口口 |④---|
66
口口口口 |①---|
口①①口 |----|
口口口口 |----|
口口口口 |----|
67
口口口口 |①---|
口口口口 |----|
口①口口 |----|
口口口口 |----|
68
口口口口 |①---|
口口口口 |----|
口口①口 |----|
口口口口 |----|
69
口口口口 |①---|
①②③口 |②---|
口口口口 |③---|
口口口口 |----|
70
口口口口 |①---|
口口口口 |----|
口口口口 |②---|
口①②口 |----|
71
口口口口 |①---|
口口口口 |----|
口①②口 |②---|
口口口口 |----|
72
口口口口 |①---|
口口口口 |----|
②③③② |②---|
口①①口 |--③-|
73
口口口口 |----|
①口口① |----|
口口口口 |①---|
口口口口 |----|
74
口口①口 |①---|
④口②④ |②---|
口口③口 |③---|
口口口口 |--④-|
75
③口口③ |----|
口口口口 |①---|
口①口口 |②---|
口②口口 |--③-|
76
口口口口 |----|
口口③口 |①---|
口②①口 |②---|
口口口口 |③---|
77
口③②口 |①---|
口①口口 |②---|
口口口口 |③---|
口口口口 |----|
78
④口口④ |①---|
口口③口 |②---|
口口②口 |③---|
①口口① |--④-|
79
口口口口 |----|
②口口② |--①-|
①口口① |----|
口口口口 |--②-|
80
口口口口 |----|
口口口口 |----|
口①①口 |----|
口口口口 |--①-|
81
口口口口 |----|
口口口口 |----|
口口口口 |----|
口口口口 |----|
82
①①①① |①---|
④口②④ |②---|
口口③口 |③---|
口口口口 |--④-|
83
③口口③ |----|
口口口口 |①---|
口①口口 |②---|
口②口口 |--③-|
84
口口口口 |----|
口口③口 |①---|
口②①口 |②---|
口口口口 |③---|
85
口③②口 |①---|
口①口口 |②---|
口口口口 |③---|
口口口口 |----|
86
④口口④ |①---|
口口③口 |②---|
口口②口 |③---|
①口口① |--④-|
87
口口口口 |----|
②口口② |--①-|
①口口① |----|
口口口口 |--②-|
88
口口口口 |----|
口口口口 |----|
口①①口 |----|
口口口口 |--①-|
89
口口口口 |----|
口口口口 |----|
口口口口 |----|
口口口口 |----|
90
口口①口 |①---|
口②口口 |②---|
口口③口 |③---|
口④口口 |④---|
91
口口口④ |①---|
口口口③ |②---|
口口口② |③---|
口口口① |④---|
92
口①口口 |①---|
口口②口 |②---|
口③口口 |③---|
口口④口 |④---|
93
④口口口 |①---|
③口口口 |②---|
②口口口 |③---|
①口口口 |④---|
94
口口①口 |①---|
口②口口 |②---|
口口③口 |③---|
口④口口 |④---|
95
口口口④ |①---|
口口口③ |②---|
口口口② |③---|
口口口① |④---|
96
口口口口 |①---|
口①②口 |②---|
口③④口 |③---|
口口口口 |④---|
97
口口口口 |①---|
①口口① |----|
②口口② |②---|
口口口口 |----|
98
口口口口 |①---|
口①①口 |----|
口①①口 |----|
口口口口 |----|

不確定度: 0

最終更新:2016年07月27日 15:39