DesireDrive
岸田教団&THE明星ロケッツ

ADVANCED

Level: 6
BPM: 184
Notes: 533

1
①口口口 |----|
②口口口 |----|
口口口口 |----|
口口口口 |--①②|
2
口口⑥口 |①---|
口口⑤口 |②-③-|
①口④口 |④--⑤|
口③②口 |--⑥-|
3
①②口口 |--①-|
④口口③ |②---|
⑥口口⑤ |③-④-|
口口口口 |⑤-⑥-|
4
口⑥口口 |①---|
口⑤口口 |②-③-|
口④口口 |④--⑤|
口②③① |--⑥-|
5
口口②① |--①-|
③口口④ |②---|
⑤口口⑥ |③-④-|
口口口口 |⑤-⑥-|
6
口口口口 |①---|
口③口口 |②---|
口②口口 |③---|
口①④口 |--④-|
7
口口口口 |--①-|
口⑤④③ |②---|
口②①口 |③-④-|
口口口口 |⑤---|
8
口口口口 |①---|
口口口口 |----|
口口口口 |----|
口①①口 |----|
9
口口口口 |--①-|
口①②口 |②---|
口⑥⑤口 |③-④-|
口④③口 |⑤-⑥-|
10
口口②① |①-②-|
③④口口 |③-④-|
口口⑥⑤ |⑤-⑥-|
口⑦⑧口 |⑦-⑧-|
11
口口口口 |①-②-|
口④⑤口 |③-④-|
②③⑥⑦ |⑤-⑥-|
①口口⑧ |⑦-⑧-|
12
①②口口 |①-②-|
口口④③ |③-④-|
⑤⑥口口 |⑤-⑥-|
口⑧⑦口 |⑦-⑧-|
13
口口口口 |①-②-|
口⑤④口 |③-④-|
⑦⑥③② |⑤-⑥-|
⑧口口① |⑦-⑧-|
14
口口②① |①-②-|
③④口口 |③-④-|
口口⑥⑤ |⑤-⑥-|
口⑦⑧口 |⑦-⑧-|
15
口口口口 |①-②-|
口④⑤口 |③-④-|
②③⑥⑦ |⑤-⑥-|
①口口⑧ |⑦-⑧-|
16
①口口② |①-②-|
③口口④ |③-④-|
⑤口口⑥ |⑤-⑥-|
⑦口口⑧ |⑦-⑧-|
17
口口口口 |①---|
口③②口 |--②-|
口①①口 |③---|
口口口口 |----|
18
口口口口 |①---|
口④口口 |----|
口③口口 |②---③-|
①②口① |--④---|
19
①口②① |①---|
口口③口 |----|
口口④口 |②---③-|
口口口口 |--④---|
20
①②口① |①---|
口③口口 |----|
口④口口 |②---③-|
口口口口 |--④---|
21
①口口① |①---|
口口口口 |----|
口口口口 |②---|
②口口② |----|
22
口口口口 |①---|
④口口口 |----|
③口口口 |②---③-|
②①①口 |--④---|
23
口口口口 |①---|
口口③口 |----|
口②②口 |②---|
口①①口 |--③-|
24
口口口口 |①---|
口①口口 |----|
口口口口 |----|
口口口口 |----|
25
口口口口 |----|
口口口口 |----|
口口口口 |----|
口口口口 |----|
26
口口口口 |①---|
口④口口 |----|
口③口口 |②---③-|
①②口① |--④---|
27
①口②① |①---|
口口③口 |----|
口口④口 |②---③-|
口口口口 |--④---|
28
①②口① |①---|
口③口口 |----|
口④口口 |②---③-|
口口口口 |--④---|
29
①口口① |①---|
口口口口 |----|
口口口口 |②---|
②口口② |----|
30
口口口口 |①---|
④口口口 |----|
③口口口 |②---③-|
②①①口 |--④---|
31
口口口口 |①---|
口口③口 |----|
口②②口 |②---|
口①①口 |--③-|
32
⑤口口⑤ |①---|
口①口口 |--②-|
口④③口 |--③-|
②口口② |④-⑤-|
33
口口口口 |--①-|
①口口① |--②-|
②口口② |--③-|
③口口③ |----|
34
①口口④ |①---|
口③②口 |②-③-|
口⑤⑥口 |④---|
口口口口 |⑤-⑥-|
35
口口口口 |①---|
①②③④ |②---|
口口口口 |③---|
口口口口 |④---|
36
口口口口 |①---|
口口口口 |----|
口①①口 |----|
口②口口 |--②-|
37
口口⑤口 |①-②-|
口④③口 |③-④-|
口②①口 |⑤---|
口口口口 |----|
38
④口口① |①---|
口②③口 |②-③-|
口⑥⑤口 |④---|
口口口口 |⑤-⑥-|
39
口口口口 |①---|
④③②① |②---|
口口口口 |③---|
口口口口 |④---|
40
口口口口 |①---|
口口口口 |②---|
口①①口
口②②口

口口口口
④口口③
口⑤⑤口 |③-④-|
口口口口 |--⑤-|
41
口口口口 |--①-|
口口口口 |②---|
②口口① |③---|
④③③④ |④---|
42
⑦⑦①① |①-②-|
口②口口 |③-④-|
⑥口③⑤ |⑤-⑥-|
口④口口 |--⑦-|
43
口口⑥⑥ |--①-|
口口①口 |②-③-|
④②口⑤ |④-⑤-|
口口③口 |--⑥-|
44
口⑦口口 |--①-|
口①⑥口 |②-③-|
口⑤②口 |④-⑤-|
口③④口 |⑥-⑦-|
45
④口①② |①---|
口③口口 |②---|
口口③口 |③-④-|
②口口④ |----|
46
口②⑦⑦ |①-②-|
⑥口③① |③-④-|
⑥④口① |⑤-⑥-|
口口⑤口 |--⑦-|
47
口口口口 |--①-|
口③⑥口 |②-③-|
口⑤②口 |--④-|
④口口① |⑤-⑥-|
48
口口口口 |----|
口口口口 |----|
口口口口 |----|
口口口口 |----|
49
口口口口 |----|
口口口口 |----|
口口口口 |----|
口口口口 |----|
50
口口口口 |①---|
口口口口 |----|
口①①口 |----|
口口口口 |----|
51
口口口口 |①---|
口口①口 |----|
口口口口 |----|
口口口口 |----|
52
口口口口 |①---|
口口口口 |----|
口①口口 |----|
口口口口 |----|
53
口口口口 |①---|
口①口口 |----|
口口口口 |----|
口口口口 |----|
54
口口口口 |①---|
口口口口 |--②-|
口②②口 |----|
①口口① |----|
55
①口口① |①---|
口②②口 |--②-|
口口口口 |----|
口口口口 |----|
56
口口口口 |①---|
口口口口 |--②-|
口②②口 |----|
①口口① |----|
57
口口口口 |①-②-|
①口口② |③-④-|
③⑦⑦④ |⑤-⑥-|
⑤口口⑥ |--⑦-|
58
口口口口 |----|
口①②③ |①---|
口④④口 |②---|
口口口口 |③-④-|
59
口口口口 |----|
口①②③ |①---|
口④④口 |②---|
口口口口 |③-④-|
60
①口口② |----|
③口口口 |①---|
口口口口 |②---|
口口口口 |③---|
61
口口口口 |①---|
口口口① |②---|
②⑤⑤③ |③---|
④口口口 |④-⑤-|
62
口口口口 |----|
③②①口 |①---|
口④④口 |②---|
口口口口 |③-④-|
63
口口口口 |----|
③②①口 |①---|
口④④口 |②---|
口口口口 |③-④-|
64
②口口① |----|
口口口③ |①---|
口口口口 |②---|
口口口口 |③---|
65
口口口口 |①---|
①口口口 |②---|
③口口② |③---|
口口口④ |④---|
66
①口口④ |①---|
口③②口 |②-③-|
口⑤⑥口 |④---|
口口口口 |⑤-⑥-|
67
口口口口 |①---|
①②③④ |②---|
口口口口 |③---|
口口口口 |④---|
68
口口口口 |①---|
口口口口 |----|
口①①口 |----|
口②口口 |--②-|
69
口口⑤口 |①-②-|
口④③口 |③-④-|
口②①口 |⑤---|
口口口口 |----|
70
④口口① |①---|
口②③口 |②-③-|
口⑥⑤口 |④---|
口口口口 |⑤-⑥-|
71
口口口口 |①---|
④③②① |②---|
口口口口 |③---|
口口口口 |④---|
72
口口口口 |①---|
口口口口 |②---|
口①①口
口②②口

口口口口
④口口③
口⑤⑤口 |③-④-|
口口口口 |--⑤-|
73
口口口口 |--①-|
口口口口 |②---|
②口口① |③---|
④③③④ |④---|
74
⑦⑦①口 |①-②-|
口②口口 |③-④-|
⑥口③⑤ |⑤-⑥-|
口④口口 |--⑦-|
75
口口⑥⑥ |--①-|
口口①口 |②-③-|
④②口⑤ |④-⑤-|
口口③口 |--⑥-|
76
口⑦口口 |--①-|
口①⑥口 |②-③-|
口⑤②口 |④-⑤-|
口③④口 |⑥-⑦-|
77
④口①② |①---|
口③口口 |②---|
口口③口 |③-④-|
②口口④ |----|
78
口②⑦⑦ |①-②-|
⑥口③① |③-④-|
⑥④口① |⑤-⑥-|
口口⑤口 |--⑦-|
79
口口口口 |--①-|
口③⑥口 |②-③-|
口⑤②口 |--④-|
④口口① |⑤-⑥-|
80
①①②② |--①-|
口口口口 |②---|
口口口口 |----|
④④③③ |③-④-|
81
口①口口 |----|
口口②口 |--①-|
口③①口 |--②-|
口口口口 |③---|
82
⑦⑦①① |①-②-|
口②口口 |③-④-|
⑥口③⑤ |⑤-⑥-|
口④口口 |--⑦-|
83
口口⑥⑥ |--①-|
口口①口 |②-③-|
④②口⑤ |④-⑤-|
口口③口 |--⑥-|
84
口⑦口口 |--①-|
口①⑥口 |②-③-|
口⑤②口 |④-⑤-|
口③④口 |⑥-⑦-|
85
④口①② |①---|
口③口口 |②---|
口口③口 |③-④-|
②口口④ |----|
86
口②⑦⑦ |①-②-|
⑥口③① |③-④-|
⑥④口① |⑤-⑥-|
口口⑤口 |--⑦-|
87
口口口口 |--①-|
口③⑥口 |②-③-|
口⑤②口 |--④-|
④口口① |⑤-⑥-|
88
口口口口 |----|
口口口口 |----|
口口口口 |----|
口口口口 |----|
89
口口口口 |----|
口口口口 |----|
口①①口 |----|
口口口口 |①---|
90
口口②① |①-②-|
③④口口 |③-④-|
口口⑥⑤ |⑤-⑥-|
口⑦⑧口 |⑦-⑧-|
91
口口口口 |①-②-|
口④⑤口 |③-④-|
②③⑥⑦ |⑤-⑥-|
①口口⑧ |⑦-⑧-|
92
①②口口 |①-②-|
口口④③ |③-④-|
⑤⑥口口 |⑤-⑥-|
口⑧⑦口 |⑦-⑧-|
93
口口口口 |①-②-|
口⑤④口 |③-④-|
⑦⑥③② |⑤-⑥-|
⑧口口① |⑦-⑧-|
94
口口②① |①-②-|
③④口口 |③-④-|
口口⑥⑤ |⑤-⑥-|
口⑦⑧口 |⑦-⑧-|
95
口口口口 |①-②-|
口④⑤口 |③-④-|
②③⑥⑦ |⑤-⑥-|
①口口⑧ |⑦-⑧-|
96
①口口② |①-②-|
③口口④ |③-④-|
⑤口口⑥ |⑤-⑥-|
⑦口口⑧ |⑦-⑧-|
97
口口口口 |①---|
口③②口 |--②-|
口①①口 |③---|
口口口口 |----|
98
①口口① |①---|
口口口口 |----|
口口口口 |----|
口口口口 |----|

不確定度: 0

最終更新:2016年07月27日 15:38