Clattanoia
OxT

BASIC

Level: 4
BPM: 190
Notes: 245

1
口口口口 |----|
口口口口 |----|
口口口口 |----|
口口口口 |----|
2
口口口口 |①---|
口③口口 |----|
口口②口 |②---|
口①①口 |--③-|
3
①①①① |----|
口口口口 |----|
口口口口 |----|
口口口口 |--①-|
4
口口口口 |----|
口②①口 |①---|
口口③口 |②---|
口口口口 |③---|
5
口口口口 |①---|
口口口口 |----|
口①口口 |----|
②②②② |--②-|
6
口口口口 |----|
口③口口 |①---|
口①②口 |②---|
口口口口 |③---|
7
口口口口 |①---|
口口①③ |----|
口口口③ |②---|
口②②口 |--③-|
8
口口口口 |----|
口①②口 |--①-|
口口口口 |----|
口口口口 |--②-|
9
口口口口 |----|
口口口口 |--①-|
口①②口 |----|
口口口口 |--②-|
10
口口口口 |----|
口口口口 |--①-|
口口口口 |----|
口①②口 |--②-|
11
口口口口 |----|
口口口口 |--①-|
口口口口 |----|
①口口② |--②-|
12
口口口口 |----|
口口口口 |--①-|
①口口② |----|
口口口口 |--②-|
13
口口口口 |----|
①口口② |--①-|
口口口口 |----|
口口口口 |--②-|
14
①口口② |----|
口口口口 |--①-|
口口口口 |----|
口口口口 |--②-|
15
口①口口 |----|
口口口口 |--①-|
口口口口 |----|
口口口口 |----|
16
口口口口 |①---|
口口②口 |----|
口①①口 |②---|
口口口口 |----|
17
①②③口 |①---|
口口口口 |②---|
口口口口 |③---|
口口口口 |----|
18
口口口口 |①---|
口②口口 |----|
口①①口 |②---|
口口口口 |----|
19
口③②① |①---|
口口口口 |②---|
口口口口 |③---|
口口口口 |----|
20
口口口口 |①---|
口口口口 |----|
口口②① |②---|
口口口口 |----|
21
口口口口 |①---|
口口口口 |----|
②①口口 |②---|
口口口口 |----|
22
口口口口 |①---|
①②口口 |----|
口口口口 |②---|
口口口口 |----|
23
口口口口 |①---|
口口①② |----|
口口口口 |②---|
口口口口 |----|
24
口口口口 |①---|
口口②口 |----|
口①①口 |②---|
口口口口 |----|
25
①②③口 |①---|
口口口口 |②---|
口口口口 |③---|
口口口口 |----|
26
口口口口 |①---|
口②口口 |----|
口①①口 |②---|
口口口口 |----|
27
口③②① |①---|
口口口口 |②---|
口口口口 |③---|
口口口口 |----|
28
口口口口 |①---|
口口口口 |----|
口口②① |②---|
口口口口 |----|
29
口口口口 |①---|
口口口口 |----|
②①口口 |②---|
口口口口 |----|
30
口口口口 |①---|
口②①口 |②---|
口④③口 |③---|
口口口口 |④---|
31
口口口口 |①---|
①口口① |----|
②口口② |②---|
口口口口 |----|
32
②②①① |①---|
口口口口 |----|
口口口口 |----|
口口口口 |②---|
33
口口口口 |----|
口口口口 |----|
口①①口 |①---|
口口口口 |----|
34
口口口口 |----|
口①①口 |①---|
口口口口 |----|
口口口口 |----|
35
①口口① |①---|
②口口② |----|
口口口口 |----|
口口口口 |②---|
36
口口①① |----|
口口口口 |----|
口口口口 |①---|
口口口口 |----|
37
①①口口 |----|
口口口口 |①---|
口口口口 |----|
口口口口 |----|
38
口口口口 |①---|
口②②口 |----|
口①①口 |----|
口口口口 |②---|
39
①口口① |----|
②口口② |----|
口口口口 |①---|
口口口口 |②---|
40
口口口口 |①---|
口口口口 |②---|
①④④① |③---|
②③③② |④---|
41
口口口口 |①---|
口①①口 |----|
口口口口 |----|
口口口口 |----|
42
②②②② |--①-|
口口口口 |----|
①口口① |----|
口口口口 |--②-|
43
口口口口 |----|
口②①口 |①---|
口口③口 |②---|
口口口口 |③---|
44
口口口口 |①---|
口口口口 |----|
口①口口 |----|
②②②② |--②-|
45
口口口口 |----|
口③口口 |①---|
口①②口 |②---|
口口口口 |③---|
46
口口口口 |①---|
口口①③ |----|
口口口③ |②---|
口②②口 |--③-|
47
口口口口 |----|
②口口口 |----|
②口口口 |①---|
口①①口 |--②-|
48
口②②口 |----|
口口口口 |----|
口①①口 |①---|
口口口口 |--②-|
49
①口口① |----|
口②②口 |----|
口口口口 |①---|
口口口口 |--②-|
50
②②②② |----|
口口口口 |----|
①口口① |①---|
口口口口 |--②-|
51
口口口口 |----|
口②①口 |①---|
口口③口 |②---|
口口口口 |③---|
52
口口口口 |①---|
口口口口 |----|
口①口口 |----|
②②②② |--②-|
53
口口口口 |----|
口③口口 |①---|
口①②口 |②---|
口口口口 |③---|
54
口口口口 |①---|
口口①③ |----|
口口口③ |②---|
口②②口 |--③-|
55
口口口口 |----|
②口口口 |----|
②口口口 |①---|
口①①口 |--②-|
56
口②②口 |----|
口口口口 |----|
口①①口 |①---|
口口口口 |--②-|
57
①口口① |----|
口②②口 |----|
口口口口 |①---|
口口口口 |--②-|
58
①①①① |----|
口口口口 |----|
口口口口 |----|
口口口口 |--①-|
59
口口口口 |----|
口②①口 |①---|
口口③口 |②---|
口口口口 |③---|
60
口口口口 |①---|
口口口口 |②---|
口①口口 |③---|
口③②口 |----|
61
口口口口 |①---|
②口口② |----|
①口口① |②---|
口口口口 |----|
62
③③③③ |①---|
口①①口 |----|
口②②口 |②---|
口口口口 |--③-|
63
口口口口 |----|
口②①口 |①---|
口口③口 |②---|
口口口口 |③---|
64
口口口口 |①---|
口口口口 |②---|
口①口口 |③---|
口③②口 |----|
65
口口口口 |①---|
②口口② |----|
①口口① |②---|
口口口口 |----|
66
③③③③ |①---|
口①①口 |----|
口②②口 |②---|
口口口口 |--③-|
67
口口口口 |----|
口①②口 |--①-|
口口口口 |----|
口口口口 |--②-|
68
口口口口 |----|
口口口口 |--①-|
口①②口 |----|
口口口口 |--②-|
69
口口口口 |----|
口口口口 |--①-|
口口口口 |----|
口①②口 |--②-|
70
口口口口 |----|
口口口口 |--①-|
口口口口 |----|
①口口② |--②-|
71
口口口口 |----|
口口口口 |--①-|
①口口② |----|
口口口口 |--②-|
72
口口口口 |----|
①口口② |--①-|
口口口口 |----|
口口口口 |--②-|
73
①口口② |----|
口口口口 |--①-|
口口口口 |----|
口口口口 |--②-|
74
口口口口 |----|
口①①口 |--①-|
口②②口 |--②-|
口③③口 |--③-|

不確定度: 0

最終更新:2016年07月27日 15:30