Clattanoia
OxT

ADVANCED

Level: 7
BPM: 190
Notes: 446

1
口口口口 |----|
口口口口 |----|
口口口口 |----|
口口口口 |----|
2
口⑧⑦口 |①-②-|
口⑥⑤口 |③-④-|
口④③口 |⑤-⑥-|
口②①口 |⑦-⑧-|
3
②⑦⑦① |--①-|
④口口③ |②-③-|
⑥口口⑤ |④-⑤-|
口口口口 |⑥-⑦-|
4
②口口② |----|
口口口口 |①---|
口①①口 |②---|
③口口③ |③---|
5
⑤①①⑤ |①---|
口③②口 |----|
口口④口 |②-③-|
口口口口 |④-⑤-|
6
口②②口 |----|
口口口口 |①---|
①口口① |②---|
口③③口 |③---|
7
①口口① |①---|
④④④④ |----|
②②③③ |②-③-|
口口口口 |--④-|
8
②②①① |----|
口口口口 |--①-|
口口口口 |----|
口口口口 |--②-|
9
③③口口 |----|
口②②口 |--①-|
口①①口 |--②-|
口口口口 |--③-|
10
②②①① |----|
口口口口 |--①-|
口口口口 |----|
口口口口 |--②-|
11
③③口口 |----|
口②②口 |--①-|
口①①口 |--②-|
口口口口 |--③-|
12
②②①① |----|
口口口口 |--①-|
口口口口 |----|
口口口口 |--②-|
13
③③口口 |----|
口②②口 |--①-|
口①①口 |--②-|
口口口口 |--③-|
14
②②①① |----|
口口口口 |--①-|
口口口口 |----|
口口口口 |--②-|
15
口口口口 |----|
口②②口 |--①-|
口①①口 |--②-|
口口口口 |----|
16
口口口① |--①-|
②口口③ |②-③-|
④口口⑤ |④-⑤-|
⑥口口⑦ |⑥-⑦-|
17
⑤口口⑥ |①-②-|
口①④口 |③-④-|
口②③口 |⑤-⑥-|
口口口口 |----|
18
口口口口 |①---|
口①⑤口 |②---|
口②④口 |③-④-|
口③口口 |--⑤-|
19
①②③④ |①-②-|
口口口口 |③-④-|
口⑤⑤口 |⑤---|
口口口口 |----|
20
①口口口 |--①-|
口②口口 |②-③-|
口口③⑤ |④-⑤-|
口口口④ |----|
21
口口口① |①-②-|
口口②口 |③-④-|
口③口⑥ |--⑤-|
④⑤⑤口 |--⑥-|
22
口口口口 |①-②-|
①②③④ |③-④-|
⑤口口口 |⑤---|
口⑥⑥口 |--⑥-|
23
口口口口 |--①-|
口口口口 |②-③-|
④③②① |④---|
口口口口 |----|
24
①口口口 |--①-|
③口口② |②-③-|
⑤口口④ |④-⑤-|
⑦口口⑥ |⑥-⑦-|
25
⑥口口⑤ |①-②-|
口④①口 |③-④-|
口③②口 |⑤-⑥-|
口口口口 |----|
26
口口口口 |①---|
口⑤①口 |②---|
口④②口 |③-④-|
口口③口 |--⑤-|
27
④③②① |①-②-|
口口口口 |③-④-|
口⑤⑤口 |⑤---|
口口口口 |----|
28
口⑥口① |--①-|
口口②口 |②-③-|
⑤③口口 |④-⑤-|
④口口口 |--⑥-|
29
①口口口 |①-②-|
口②口口 |③-④-|
口口③口 |--⑤-|
⑤⑥⑦④ |⑥-⑦-|
30
①②③口 |①---|
口②③口 |②---|
口口③口 |③---|
口④④口 |④---|
31
口口口⑤ |①-②-|
④口口③ |③-④-|
②口口① |⑤---|
口口口口 |----|
32
口③③口 |①---|
口②口口 |②---|
口①口口 |③---|
口④④口 |④---|
33
⑥口口口 |--①-|
口②口⑤ |②---|
④口①口 |③-④-|
口口口③ |⑤-⑥-|
34
口口口① |①-②-|
②口口口 |③---|
⑤③③④ |----|
口口口口 |④-⑤-|
35
口②①口 |①-②-|
口④③口 |③-④-|
口⑥⑤口 |⑤-⑥-|
口⑧⑦口 |⑦-⑧-|
36
口口口口 |①-②-|
口口⑥口 |③-④-|
④口⑤③ |⑤---|
②口口① |⑥---|
37
口①①口 |①---|
口口④口 |②---|
口③口口 |--③-|
口②②口 |④---|
38
⑤口口④ |①-②-|
③口口⑥ |③-④-|
口⑦⑦② |⑤-⑥-|
①口口口 |⑦---|
39
③口③口 |----|
口④口④ |①-②-|
口口口口 |③---|
口①②口 |④---|
40
口口口口 |①---|
口口口口 |②---|
①④①④ |③---|
③②③② |④---|
41
口口口口 |①---|
①口①口 |----|
口口口口 |----|
口口口口 |----|
42
②⑦⑦① |--①-|
④口口③ |②-③-|
⑥口口⑤ |④-⑤-|
口口口口 |⑥-⑦-|
43
②口口② |----|
口口口口 |①---|
口①①口 |②---|
③口口③ |③---|
44
⑤①①⑤ |①---|
口③②口 |----|
口口④口 |②-③-|
口口口口 |④-⑤-|
45
口②②口 |----|
口口口口 |①---|
①口口① |②---|
口③③口 |③---|
46
①口口① |①---|
④④④④ |----|
②②③③ |②-③-|
口口口口 |--④-|
47
口口口口 |----|
③③③③ |----|
②②①① |①-②-|
口口口口 |--③-|
48
口口口口 |----|
③③③③ |----|
口①①口 |①-②-|
口②②口 |--③-|
49
②③口① |----|
口口口口 |①---|
口④④口 |②-③-|
口口口口 |--④-|
50
口⑥⑥口 |--①-|
③口口口 |②---|
⑤口口④ |③-④-|
口②①口 |⑤-⑥-|
51
②口口② |----|
口口口口 |①---|
口①①口 |②---|
③口口③ |③---|
52
⑤①①⑤ |①---|
口②③口 |----|
口④口口 |②-③-|
口口口口 |④-⑤-|
53
口②②口 |----|
口口口口 |①---|
①口口① |②---|
口③③口 |③---|
54
①口口① |①---|
⑤⑤⑤⑤ |--②-|
口④③② |③-④-|
口口口口 |--⑤-|
55
口口口口 |----|
④④④④ |--①-|
①②③口 |②-③-|
口口口口 |--④-|
56
口口口口 |----|
③③③③ |----|
口①①口 |①-②-|
口②②口 |--③-|
57
①②③④ |--①-|
口⑥⑥口 |②-③-|
口⑤⑤口 |④---|
口口口口 |⑤-⑥-|
58
②口口② |--①-|
口口口口 |----|
口口口口 |----|
口①①口 |--②-|
59
口口口⑥ |--①-|
口①口⑤ |②-③-|
口口②口 |④---|
口③④口 |⑤-⑥-|
60
⑥口口口 |--①-|
⑤口①口 |②-③-|
口②口口 |④---|
口④③口 |⑤-⑥-|
61
口口口口 |----|
口口口口 |----|
口口口口 |----|
口口口口 |----|
62
③口口③ |----|
口口口口 |----|
②口口① |①-②-|
口口口口 |--③-|
63
口口口⑥ |--①-|
口①口⑤ |②-③-|
口口②口 |④---|
口③④口 |⑤-⑥-|
64
口口口口 |--①-|
⑤口①口 |②-③-|
口②口口 |④---|
口④③口 |⑤---|
65
②②①① |①---|
口口口口 |----|
口口口口 |②---|
口口口口 |----|
66
口口口口 |①---|
口①①口 |②---|
⑤②②④ |③---|
口③③口 |④-⑤-|
67
②②①① |----|
口口口口 |--①-|
口口口口 |----|
口口口口 |--②-|
68
③③口口 |----|
口②②口 |--①-|
口①①口 |--②-|
口口口口 |--③-|
69
②②①① |----|
口口口口 |--①-|
口口口口 |----|
口口口口 |--②-|
70
③口口③ |----|
口②②口 |--①-|
口①①口 |--②-|
口口口口 |--③-|
71
口口口口 |----|
口口口口 |--①-|
口口口④ |②-③-|
①②③口 |--④-|
72
口口口⑥ |①-②-|
③④⑤口 |--③-|
口②①口 |④-⑤-|
口口口口 |--⑥-|
73
口②①口 |①-②-|
口⑦口口 |--③-|
口⑤⑥口 |④-⑤-|
口③④口 |⑥-⑦-|
74
③②口③ |①-②-|
④口①④ |--③-|
⑤口口⑤ |--④-|
口口口口 |--⑤-|

不確定度: 0

最終更新:2016年07月27日 15:30