CIRCUS U CRIC
Nanako

ADVANCED

Level: 7
BPM: 185
Notes: 485

1
口口口口 |----|
口口口口 |----|
口口口口 |----|
口口口口 |----|
2
|①---|
口②口② |--②-|
口①①口 |----|
口口口口 |③---|
3
口口口 |----|
口口口口 |----|
口口口口 |----|
口口口口 |--①-|
4
口口口口 |①---|
|--②-|
②口②口 |----|
口①①口 |③---|
5
口口口口 |----|
口口口 |----|
口口口口 |----|
口口口口 |--①-|
6
|①---|
口②口② |--②-|
口①①口 |----|
口口口口 |③---|
7
口口口 |----|
口口口口 |----|
口口口口 |----|
口口口口 |--①-|
8
口口口口 |①---|
|--②-|
②口②口 |----|
口①①口 |③---|
9
口口口口 |----|
口口口 |----|
口口口口 |--①-|
口口口口 |----|
10
①②③④ |①-②-|
口口口口 |③-④-|
口口口口 |----|
口口口口
11
口口口口 |①-②-|
①②③④ |③-④-|
口口口口 |----|
口口口口
12
口口口口 |①-②-|
口口口口 |③-④-|
①②③④ |--⑤-|
⑤口口口
13
口④口口 |①-②-|
③口口① |③-④-|
口口口口 |----|
口口口②
14
口口口口 |①-②-|
口口口口 |③-④-|
口口口口 |----|
①②③④
15
口②③口 |①-②-|
①口口④ |③-④-|
口口口口 |----|
口口口口
16
口口口口 |①-②-|
口口口口 |③-④-|
⑤④②口 |--⑤-|
①口口③
17
口口口口 |①-②-|
口③①⑥ |③-④-|
口⑤④② |⑤-⑥-|
口口口口
18
口口口口 |①-②-|
口口口口 |③-④-|
口口口口 |----|
①②③④
19
口口口口 |①-②-|
①②③④ |③-④-|
口口口口 |----|
口口口口
20
口口口口 |①-②-|
口口口口 |③-④-|
⑤④②口 |--⑤-|
①口口③
21
口口口口 |①-②-|
口③①口 |③-④-|
口口④② |----|
口口口口
22
口口口口 |①-②-|
口口口口 |③-④-|
口口口口 |----|
①②③④
23
口②③口 |①-②-|
①口口④ |③-④-|
口口口口 |----|
口口口口
24
口口口口 |①-②-|
口口口口 |③-④-|
⑤④②口 |--⑤-|
①口口③
25
口口口口 |①-②-|
口③①⑥ |③-④-|
口⑤④② |⑤-⑥-|
口口口口
26
口①口③ |①-②-|
④口②口 |③-④-|
口口⑦⑤ |⑤-⑥-|
⑥⑧口口 |⑦-⑧-|
27
口口口口 |----|
口口口口 |----|
口口口口 |----|
①口口口 |--①-|
28
口口口口 |①---|
口口口口 |②-③-|
⑥④③口 |④---|
⑤口①② |⑤-⑥-|
29
口②口口 |①---|
口口口口 |②---|
口口口①
口口口口

口口口口
口口口口
口口口③ |----|
口口口口 |--③-|
30
口口口口 |①---|
⑥③④口 |②-③-|
②①口⑤ |④---|
口口口口 |⑤-⑥-|
31
口②口口 |①---|
口口口① |②---|
口口口口 |----|
③口口口 |--③-|
32
口口口口 |①-②-|
口④口⑦ |③-④-|
口①③口 |--⑤-|
口⑤⑥② |⑥-⑦-|
33
口口④口 |①-②-|
①口②口 |③-④-|
③⑤口口 |----|
口口口口 |--⑤-|
34
口口口口 |①---|
口口口① |--②-|
②④口口 |③---|
口口③口 |--④-|
35
口②口口 |①---|
①口口③ |②-③-|
口口口口 |----|
④口口口 |--④-|
36
口口口口 |①---|
口口口口 |②-③-|
⑥④③口 |④---|
⑤口①② |⑤-⑥-|
37
口②口口 |①---|
口口口口 |②---|
口口口①
口口口口

口口口口
口口口口
口口口③ |----|
口口口口 |--③-|
38
口口口口 |①---|
⑥③④口 |②-③-|
②①口⑤ |④---|
口口口口 |⑤-⑥-|
39
口②口口 |①---|
口口口① |②---|
口口口口 |----|
③口口口 |--③-|
40
口口口口 |①-②-|
口④口⑥ |③-④-|
口①③口 |--⑤-|
口⑤口② |--⑥-|
41
③口口口 |--①-|
口②①口 |②-③-|
口④口口 |----|
口口口口 |--④-|
42
口口口口 |①---|
口口口① |--②-|
②④口口 |③---|
口口③口 |--④-|
43
①口口① |①---|
口口口口 |----|
②口口口 |----|
口口口口 |--②-|
44
口口口口 |①-②-|
⑤口口⑥ |③-④-|
口①②③ |----|
口口口④ |⑤-⑥-|
45
②③④口 |①-②-|
⑤①口⑥ |----|
口口口口 |③-④-|
口口口口 |⑤-⑥-|
46
口口口 |①---|
口口口 |----|
③④② |②-③-|
口①口 |④-⑤-|
47
口口口口 |----|
口口口口 |--①-|
口口口口 |----|
口口口 |----|
48
口① |①---|
口口 |--②-|
②口 |③---|
口口 |----|
49
口口口口 |----|
②④⑤③ |①---|
口口口口 |②-③-|
口口 |④-⑤-|
50
口①口口 |①---|
④口口④ |--②-|
口②③⑤ |③---|
口口口口 |④-⑤-|
51
口口口② |--①-|
口口①口 |--②-|
口口口口 |----|
口口口口 |----|
52
口口口口 |①-②-|
①②③口 |③-④-|
口口口口 |⑤---|
⑤口口④
53
口口①口 |①-②-|
口⑤口口 |③-④-|
②③④口 |⑤---|
口口口口
54
口口口① |①-②-|
口口口口 |③-④-|
口口口⑥ |⑤-⑥-|
②③④⑤
55
口④口口 |①-②-|
⑤口③口 |③-④-|
①口②口 |⑤---|
口口口口
56
口口口⑤ |①-②-|
口④口口 |③-④-|
口口③口 |⑤---|
①②口口
57
口①①口 |①---|
口口口口 |②---|
③口口③ |③---|
口②②口
58
口④口口 |①-②-|
①②⑤③ |③-④-|
口⑥口口 |⑤-⑥-|
口口口口
59
口口口 |①---|
口口口 |②---|
口口口
口①口

口口口
口口口口
口口口口 |--③-|
口口口口
60
口口④口 |①-②-|
口③口口 |③-④-|
口口口② |----|
口①口口
61
口④口口 |①-②-|
口口③口 |③-④-|
②口口口 |----|
口口①口
62
口口④口 |①-②-|
口③口口 |③-④-|
口⑤②口 |--⑤-|
口①口口
63
口④口口 |①-②-|
口口口③ |③-④-|
口口口② |----|
口口口①
64
口口④口 |①-②-|
口③口口 |③-④-|
口口②口 |----|
口①口口
65
口②口口 |①-②-|
①口③口 |③-④-|
口④口口 |----|
口口口口
66
口口口口 |①---|
②口口口 |--②-|
口口口口 |--③-|
①口口③
67
口口口口 |①---|
口③口口 |②---|
口②口口 |③---|
口①口口
68
口①口口 |①-②-|
口口⑤⑥ |--③-|
口口③④ |④---|
口口①② |⑤-⑥-|
69
口口①② |--①-|
口口口口 |②---|
口口口口 |----|
口口口口 |----|
70
口口口④ |①-②-|
③口口⑤ |③-④-|
⑥口口② |----|
口口①口 |⑤-⑥-|
71
③口口口 |①-②-|
④②口口 |----|
⑤口口口 |③---④-|
口口口① |--⑤---|
72
口⑥口⑥ |①---②-|
口口③口 |--③---|
口⑤②⑤ |④---⑤-|
口④①④ |--⑥---|
73
口口口口 |①-②-|
①②③口 |③-④-|
口口口口 |⑤---|
⑤口口④
74
口口①口 |①-②-|
口⑤口口 |③-④-|
②③④口 |⑤---|
口口口口
75
口口口① |①-②-|
口口口口 |③-④-|
口口口⑥ |⑤-⑥-|
②③④⑤
76
口④口口 |①-②-|
⑤口③口 |③-④-|
①口②口 |⑤---|
口口口口
77
口口口⑤ |①-②-|
口④口口 |③-④-|
口口③口 |⑤---|
①②口口
78
口①①口 |①---|
口口口口 |②---|
③口口③ |③---|
口②②口
79
口④口口 |①-②-|
①②⑤③ |③-④-|
口⑥口口 |⑤-⑥-|
口口口口
80
口口口 |①---|
口口口 |②---|
口口口
口①口

口口口
口口口口
口口口口 |③---|
口口口口
81
口口④口 |①-②-|
口③口口 |③-④-|
口口口② |----|
口①口口
82
口④口口 |①-②-|
口口③口 |③-④-|
②口口口 |----|
口口①口
83
口口④口 |①-②-|
口③口口 |③-④-|
口⑤②口 |--⑤-|
口①口口
84
口④口口 |①-②-|
口口口③ |③-④-|
口口口② |----|
口口口①
85
口口④口 |①-②-|
口③口口 |③-④-|
口口②口 |----|
口①口口
86
口②口口 |①-②-|
①口③口 |③-④-|
口④口口 |----|
口口口口
87
口口口口 |①-②-|
②口口④ |③-④-|
口口口口 |--⑤-|
⑤①③口
88
口口口口 |①---|
口③口口 |②---|
口②口口 |③---|
口口口①
89
口口 |①---|
口口 |----|
口口 |----|
口口
90
口口口口 |----|
口口口口 |----|
口口口口 |----|
口口口口
91
口口 |①---|
③口②口 |----|
口口口口 |②-③-|
口口口口
92
口口口口 |----|
口口口口 |----|
①口口② |①-②-|
口口口口
93
①②③④ |①-②-|
口口口口 |③-④-|
口口口口 |----|
口口口口
94
口口口口 |①-②-|
①②③④ |③-④-|
口口口口 |----|
口口口口
95
口口口口 |①-②-|
口口口口 |③-④-|
①②③④ |--⑤-|
⑤口口口
96
口④口口 |①-②-|
③口口① |③-④-|
⑤口口⑥ |⑤-⑥-|
口口口②
97
口口口口 |①-②-|
口口口口 |③-④-|
口口口口 |----|
①②③④
98
口②③口 |①-②-|
①口口④ |③-④-|
口口口口 |----|
口口口口
99
口口口口 |①-②-|
口口口口 |③-④-|
⑤④②口 |--⑤-|
①口口③
100
口口口口 |①-②-|
口③①⑥ |③-④-|
口⑤④② |⑤-⑥-|
口口口口
101
口口口口 |①-②-|
口口口口 |③-④-|
口口口口 |----|
①②③④
102
口口口口 |①-②-|
①②③④ |③-④-|
口口口口 |----|
口口口口
103
口口口口 |①-②-|
口口口口 |③-④-|
⑤④②口 |--⑤-|
①口口③
104
口口口口 |①-②-|
口③①⑥ |③-④-|
口⑤④② |⑤-⑥-|
口口口口
105
口口口口 |①-②-|
口口口口 |③-④-|
口口口口 |----|
①②③④
106
口②③口 |①-②-|
①口口④ |③-④-|
口口口口 |----|
口口口口
107
口口口口 |①-②-|
口口口口 |③-④-|
⑤④②口 |--⑤-|
①口口③
108
口口口口 |①-②-|
口③①⑥ |③-④-|
口⑤④② |⑤-⑥-|
口口口口
109
口①口③ |①-②-|
④口②口 |③-④-|
口口⑦⑤ |⑤-⑥-|
⑥⑧口口 |⑦-⑧-|
110
口口口口 |----|
口口口口 |----|
口口口口 |----|
口口口口
111
|①---|
|----|
|----|
|----|
112
口口口口 |----|
口口口口 |----|
口口口口 |----|
口口口口 |----|
113
口口口口 |----|
口口口口 |----|
口口口口 |----|
口口口口 |----|
114
口口口口 |----|
口口口口 |----|
口口口口 |----|
口口口口 |----|
115
口口口口 |----|
口口口口 |----|
口口口口 |----|
口口口口 |----|
116
|①---|
口口口口 |----|
口口口口 |----|
口口口口 |----|

不確定度: 0

最終更新:2016年07月27日 15:27