Shine On Me
kors k

BASIC

Level: 4
BPM: 170
Notes: 404

1
口口口口 |----|
口口口口 |----|
口口口口 |----|
口口口口 |----|
2
②口口② |①---|
③①①③ |②---|
口口口口 |----|
口口口口 |③---|
3
口口口口 |----|
口口口口 |①---|
①口口① |----|
②口口② |②---|
4
口口口口 |----|
口口口口 |①---|
口②②口 |----|
口①①口 |②---|
5
①口口① |①---|
口①①口 |----|
口口口口 |----|
口口口口 |----|
6
口①口口 |①---|
口口口② |②---|
③口口口 |③---|
口口④口 |④---|
7
口口④口 |①---|
③口口口 |②---|
口口口② |③---|
口①口口 |④---|
8
口①口口 |①---|
口口口② |②---|
③口口口 |③---|
口口④口 |④---|
9
口口④口 |①---|
③口口口 |②---|
口口口② |③---|
口①口口 |④---|
10
口口口口 |①---|
口④①口 |②---|
口②③口 |③---|
口口口口 |④---|
11
②口口① |①---|
口口口口 |②---|
口口口口 |③---|
④口口③ |④---|
12
口口口口 |①---|
口②③口 |②---|
口④①口 |③---|
口口口口 |④---|
13
④口口③ |①---|
口口口口 |②---|
口口口口 |③---|
②口口① |④---|
14
口①口口 |①---|
口口②口 |②---|
口③口口 |③---|
口口④口 |④---|
15
④口口④ |①---|
③口口③ |②---|
②口口② |③---|
①口口① |④---|
16
口口①口 |①---|
口②口口 |②---|
口口③口 |③---|
口④口口 |④---|
17
④口口④ |①---|
③口口③ |②---|
②口口② |③---|
①口口① |④---|
18
口①④口 |①---|
口口②口 |②---|
口口口③ |③---|
口口口口 |④---|
19
口口口口 |①---|
口①口口 |②---|
②③③口 |③---|
口④④口 |④---|
20
口④④口 |①---|
③口口③ |②---|
口②②口 |③---|
①口口① |④---|
21
①口口① |①---|
口②②口 |②---|
③口口③ |③---|
口④④口 |④---|
22
①口口① |①---|
口①①口 |----|
口口口口 |----|
口口口口 |----|
23
口口口口 |----|
口口口口 |----|
口口口口 |----|
口口口口 |----|
24
口口口口 |①---|
①口口① |----|
口①①口 |----|
口口口口 |----|
25
口口口口 |----|
口口口口 |----|
口口口口 |----|
口口口口 |----|
26
口口口口 |①---|
口口口口 |----|
①口口① |----|
口①①口 |----|
27
口口口口 |----|
口口口口 |----|
口口口口 |----|
口口口口 |----|
28
口口口口 |----|
口口口口 |----|
口口口口 |----|
口口口口 |----|
29
口口口口 |----|
口口口口 |----|
口口口口 |----|
口口口口 |----|
30
口口口口 |①---|
口口口口 |----|
①①②口 |②---|
口口②口 |----|
31
口②口口 |①---|
口②①① |----|
口口口口 |②---|
口口口口 |----|
32
口口口口 |①---|
口口口口 |----|
①①②口 |②---|
口口②口 |----|
33
口②口口 |①---|
口②①① |----|
口口口口 |②---|
口口口口 |----|
34
口口口口 |①---|
口口口口 |----|
口②①① |②---|
口②口口 |----|
35
口口②口 |①---|
①①②口 |----|
口口口口 |②---|
口口口口 |----|
36
口口口口 |①---|
口口口口 |----|
口②①① |②---|
口②口口 |----|
37
口口②口 |①---|
①①②口 |----|
口口口口 |②---|
口口口口 |----|
38
口口口口 |①---|
口口口口 |----|
②②口口 |②---|
口口①口 |----|
39
口口②② |①---|
口①口口 |----|
口口口口 |②---|
口口口口 |----|
40
口①口口 |①---|
口口②② |----|
口口口口 |②---|
口口口口 |----|
41
口口口口 |①---|
口口口口 |----|
口口①口 |②---|
②②口口 |----|
42
口口口口 |①---|
口口口口 |----|
口口口② |②---|
口口②① |----|
43
口口口口 |①---|
口口口口 |----|
②口口口 |②---|
①②口口 |----|
44
口口口口 |①---|
②口口② |----|
口①①口 |②---|
口口口口 |----|
45
①口口① |①---|
口①①口 |----|
口口口口 |----|
口口口口 |----|
46
①口口② |①---|
口①②口 |②---|
口④③口 |③---|
④口口③ |④---|
47
口②②口 |①---|
①口口③ |②---|
①口口③ |③---|
口④④口 |④---|
48
④口口口 |①---|
③口口口 |②---|
②口口口 |③---|
①口口口 |④---|
49
口①②③ |①---|
口口口④ |②---|
口口口口 |③---|
口口口口 |④---|
50
口口口口 |①---|
口口口口 |②---|
口口口① |③---|
口④③② |④---|
51
口口口口 |①---|
口②③口 |②---|
口①④口 |③---|
口口口口 |④---|
52
口口口口 |①---|
④口口④ |②---|
③口口③ |③---|
②①①② |④---|
53
①①①① |①---|
口口口口 |----|
口口口口 |----|
口口口口 |----|
54
口口口口 |①---|
口③口① |②---|
④口②口 |③---|
口口口口 |④---|
55
口口口口 |①---|
①口③口 |②---|
口②口④ |③---|
口口口口 |④---|
56
口④口口 |①---|
口口③口 |②---|
口②口口 |③---|
口口①口 |④---|
57
口口①口 |①---|
口②口口 |②---|
口口③口 |③---|
口④口口 |④---|
58
口口口口 |①---|
口②口④ |②---|
口②口④ |③---|
①口③口 |④---|
59
口口口口 |①---|
④口②口 |②---|
④口②口 |③---|
口③口① |④---|
60
①口③口 |①---|
口②口④ |②---|
口②口④ |③---|
口口口口 |④---|
61
口③口① |①---|
④口②口 |②---|
④口②口 |③---|
口口口口 |④---|
62
口口口口 |①---|
口口口口 |②---|
口口④③ |③---|
①②口口 |④---|
63
口口④③ |①---|
①②口口 |②---|
口口口口 |③---|
口口口口 |④---|
64
①②口口 |①---|
口口④③ |②---|
口口口口 |③---|
口口口口 |④---|
65
口口口口 |①---|
口口口口 |②---|
①②口口 |③---|
口口④③ |④---|
66
口口④口 |①---|
口口③③ |②---|
②②口口 |③---|
口①口口 |④---|
67
口①口口 |①---|
②②口口 |②---|
口口③③ |③---|
口口④口 |④---|
68
④口口③ |①---|
口口口口 |②---|
口口口口 |③---|
②口口① |④---|
69
口①①口 |①---|
口②②口 |②---|
口③③口 |③---|
口口口口 |----|
70
④口口④ |①---|
口③③口 |②---|
口②②口 |③---|
①口口① |④---|
71
口①①口 |①---|
②口口② |②---|
③口口③ |③---|
口④④口 |④---|
72
口④④口 |①---|
③口口③ |②---|
口②②口 |③---|
①口口① |④---|
73
①口口① |①---|
口②②口 |②---|
③口口③ |③---|
口④④口 |④---|
74
口④口④ |①---|
口口口③ |②---|
口②口② |③---|
口口口① |④---|
75
①口口口 |①---|
②口②口 |②---|
③口口口 |③---|
④口④口 |④---|
76
口④口④ |①---|
口③口口 |②---|
口②口② |③---|
口①口口 |④---|
77
口口①口 |①---|
②口②口 |②---|
口口③口 |③---|
④口④口 |④---|
78
口口口口 |①---|
③③口口 |②---|
口②口口 |③---|
口①④口 |④---|
79
口③④口 |①---|
口口②② |②---|
口口①口 |③---|
口口口口 |④---|
80
①口口④ |①---|
②口口口 |②---|
③③口口 |③---|
口口口口 |④---|
81
口口口口 |①---|
口口口① |②---|
口口②② |③---|
口③④口 |④---|
82
口④③口 |①---|
④口②③ |②---|
口口①② |③---|
口口口① |④---|
83
口口口口 |①---|
口①口口 |②---|
①②口口
②口口口

口口口口
口口口口
④口口④ |③---|
口③③口 |④---|
84
①口口口 |①---|
②①口口 |②---|
③②口④ |③---|
口③④口 |④---|
85
口③③② |①---|
口口②① |②---|
口口①口 |③---|
口口口口 |----|
86
口口口口 |①---|
口①②口 |----|
口口口口 |②---|
口口口口 |----|
87
口口口口 |①---|
口口口口 |----|
口②①口 |②---|
口口口口 |----|
88
口口口口 |①---|
口口口口 |----|
口口口口 |②---|
口①②口 |----|


不确定度: 0

タグ:

+ タグ編集
  • タグ:

このサイトはreCAPTCHAによって保護されており、Googleの プライバシーポリシー利用規約 が適用されます。

最終更新:2012年11月10日 14:26