ANTI-HERO
SEKAI NO OWARI

BASIC

Level: 3
BPM: 105
Notes: 175

1
口口口口 |----|
口口口口 |----|
口口口口 |----|
口口口口 |----|
2
口口口口 |①---|
口口口口 |----|
口口①口
口口口口

口口口口
口口口口
口口②口 |②---|
口口口口 |----|
3
口口口口 |①---|
口口口口 |----|
口口①口
口口口口

口口口口
口口口口
口口②口 |②---|
口口口口 |----|
4
口口口口 |①---|
口口②③ |②---|
口口①④ |③---|
口口口口 |④---|
5
口口口口 |①---|
口口③口 |②---|
口②口口 |③---|
口口①口 |----|
6
口口④口 |①---|
口③口口 |②---|
口②①口 |③---|
口口口口 |④---|
7
口口口口 |①---|
口②①口 |②---|
口③口口 |③---|
口口④口 |④---|
8
口口④口 |①---|
口③口口 |②---|
口②①口 |③---|
口口口口 |④---|
9
口口口口 |①---|
口②①口 |②---|
口③口口 |③---|
口口④口 |④---|
10
口口④口 |①---|
口③口口 |②---|
口①②口 |③---|
口口口口 |④---|
11
口口口口 |①---|
口①②口 |②---|
口口③口 |③---|
口④口口 |④---|
12
口④口口 |①---|
口口③口 |②---|
口①②口 |③---|
口口口口 |④---|
13
口口口口 |①---|
口①口口 |②---|
口口②口 |③---|
口③④口 |④---|
14
口④②口 |①---|
口口口口 |②---|
口③①口 |③---|
口口口口 |④---|
15
口口②口 |①---|
口③③口 |②---|
口口①口 |③---|
口口口口 |----|
16
口②④口 |①---|
口口口口 |②---|
①口口③ |③---|
口口口口 |④---|
17
口②口口 |①---|
口③③口 |②---|
①口口口 |③---|
口口口口 |----|
18
口④②口 |①---|
口口口口 |②---|
口③①口 |③---|
口口口口 |④---|
19
口口②口 |①---|
口③③口 |②---|
口口①口 |③---|
口口口口 |----|
20
口②④口 |①---|
口口口口 |②---|
①口口③ |③---|
口口口口 |④---|
21
口②口口 |①---|
口口③口 |②---|
①口口口 |③---|
口口口口 |----|
22
口②②口 |①---|
口口口口 |②---|
口口①口
口口口口

口④④口
口口口口
口③口口 |③---|
口口口口 |④---|
23
口②②口 |①---|
口③③口 |②---|
口口①口 |③---|
口口口口 |----|
24
口②②口 |①---|
口口口口 |②---|
①口口口
口口口口

口④④口
口口口口
口口口③ |③---|
口口口口 |④---|
25
口②②口 |①---|
口③③口 |②---|
①口口口 |③---|
口口口口 |----|
26
口口口口 |①---|
口②②口 |②---|
口口①口
口口口口

口口口口
口④④口
口③口口 |③---|
口口口口 |④---|
27
口口③口 |①---|
口口口② |②---|
口口①口 |③---|
口口口口 |----|
28
口①口口 |①---|
②口口口 |②---|
口③④口 |③---|
口口口口 |④---|
29
口③③口 |①---|
口②①口 |②---|
口口口口 |③---|
口口口口 |----|
30
口口口口 |①---|
口②②口 |②---|
口口①口
口口口口

口口口口
口④④口
口③口口 |③---|
口口口口 |④---|
31
口口口口 |①---|
口②②口 |②---|
口口口口
口口①口

口口口口
口④④口
口口口口 |③---|
口③口口 |④---|
32
口②②口 |①---|
口口口口 |②---|
口口①口
口口口口

口④④口
口口口口
口③口口 |③---|
口口口口 |④---|
33
口口口口 |①---|
口①①口 |----|
口口口口
口口口口

口口口口
口②③口
口口口口 |②---|
口口口口 |③---|
34
口口口口 |①---|
口②②口 |②---|
口口口①
口口口口

口口口口
口④④口
③口口口 |③---|
口口口口 |④---|
35
口口口口 |①---|
口②②口 |②---|
口口①口
口口口口

口口口口
口④④口
口③口口 |③---|
口口口口 |④---|
36
口②②口 |①---|
口口口口 |②---|
口口口①
口口口口

口④④口
口口口口
③口口口 |③---|
口口口口 |④---|
37
口口口口 |①---|
口①①口 |----|
口口口口 |----|
口口口口 |----|
38
口④④口 |①---|
口口③口 |②---|
口口②口 |③---|
口口①口 |④---|
39
口④④口 |①---|
口③口口 |②---|
口②口口 |③---|
口①口口 |④---|
40
口④④口 |①---|
口口口③ |②---|
口口口② |③---|
口口口① |④---|
41
口④④口 |①---|
③口口口 |②---|
②口口口 |③---|
①口口口 |④---|

不確定度: 0

最終更新:2016年07月27日 15:26