ANTI-HERO
SEKAI NO OWARI

ADVANCED

Level: 5
BPM: 105
Notes: 363

1
口口口口 |----|
口口口口 |----|
口口口口 |----|
口口口口 |----|
2
口口口口 |①---|
口口②口 |②---|
口口口口
口①①口

口口口口
口④口口
口口口口 |③---|
口③③口 |④---|
3
口口口口 |①---|
口口②口 |②---|
口口口口
口①①口

口口口口
口④口口
口口口口 |③---|
口③③口 |④---|
4
口⑧⑦⑦ |①-②-|
口⑥⑤口 |③-④-|
口④③③ |⑤-⑥-|
口②①口 |⑦-⑧-|
5
口口口口 |①---|
口口口口 |②---|
口②①口
口口口口

口③③口
口口口口
口④口口 |③---|
口口口口 |④---|
6
口⑦④⑧ |①-②-|
口③⑥③ |③--④-⑤|
⑨⑤②⑨ |--⑥--⑦|
口①口口 |⑧-⑨-|
7
⑦④⑧⑥ |①-②-|
③口③口 |③--④-⑤|
⑨②⑤⑨ |--⑥--⑦|
口口①口 |⑧-⑨-|
8
口⑦④⑧ |①-②-|
口③⑥③ |③--④-⑤|
⑨⑤②⑨ |--⑥--⑦|
口①口口 |⑧-⑨-|
9
口④⑦口 |①-②-|
③⑥③口 |③--④-⑤|
口②⑤口 |--⑥--⑦|
⑧口①⑨ |⑧-⑨-|
10
口⑦④⑧ |①-②-|
口③⑥③ |③--④-⑤|
⑨⑤②⑨ |--⑥--⑦|
口①口口 |⑧-⑨-|
11
⑦④⑧⑥ |①-②-|
③口③口 |③--④-⑤|
⑨②⑤⑨ |--⑥--⑦|
口口①口 |⑧-⑨-|
12
口⑦④⑧ |①-②-|
口③⑥③ |③--④-⑤|
⑨⑤②⑨ |--⑥--⑦|
口①口口 |⑧-⑨-|
13
口③④口 |①---|
③口口④ |②---|
口①②口 |③---|
①口口② |④---|
14
口口口口 |①-②-|
口④②口 |③-④-|
口③③口
口①①口

口口口口
⑦口口⑦
⑥口口⑥ |⑤-⑥-|
口⑤⑤口 |⑦---|
15
⑤④口⑤ |①-②-|
口口③口 |③-④-|
口②口口 |⑤---|
口口①口 |----|
16
口口口口 |①-②-|
口④②口 |③-④-|
口口口口
③③①①

⑦口口⑦
⑥口口⑥
⑤口口⑤ |⑤-⑥-|
口口口⑧ |⑦-⑧-|
17
口④④口 |①-②-|
口④④② |③---|
①③③口 |④---|
口口口口 |----|
18
口口口口 |①-②-|
口④口口 |③-④-|
口②口③
口口口①

口⑥口口
口口口⑤
口⑦⑦口 |⑤-⑥-|
口口口口 |⑦---|
19
口④④口 |①-②-|
③④④口 |③---|
口口口② |④---|
①口口口 |----|
20
口口口③ |①-②-|
②⑥口口 |③-④-|
口口①⑦ |⑤-⑥-|
④口⑤口 |⑦---|
21
口④④口 |①-②-|
口③口口 |③---|
①口②口 |④---|
口口口口 |----|
22
⑦⑥⑥口 |①-②-|
口口口口 |③-④-|
④⑤⑤③ |⑤-⑥-|
②口口① |--⑦-|
23
口口口① |①-②-|
口②③口 |③---|
口④④口 |④---|
口口口口 |----|
24
口口口口 |①-②-|
口④②口 |③-④-|
口③③口
口①①口

口口口口
⑦口口⑦
⑥口口⑥ |⑤-⑥-|
口⑤⑤口 |⑦---|
25
口③③口 |--①-|
口口口口 |②---|
口②①口 |③---|
口口口口 |----|
26
口口口口 |①-②-|
口⑥⑥口 |③---|
⑤③③④ |④-⑤-|
②口口① |⑥---|
27
②⑤⑤① |①-②-|
④口口③ |③-④-|
口口口口 |⑤---|
口口口口 |----|
28
口⑦口⑧ |①-②-|
口⑤口⑥ |③-④-|
③口④口 |⑤-⑥-|
①口②口 |⑦-⑧-|
29
口口口口 |①---|
口③③口 |②---|
①③③② |③---|
①口口② |----|
30
口④④⑤ |①-②-|
口③③⑤ |③--④-⑤|
口②口口
口口①口

⑥⑧⑧口
⑥口口口
口口口口 |--⑥---|
⑦口口⑦ |⑦-⑧-|
31
⑤④④口 |①-②-|
⑤③③口 |③--④-⑤|
口口②口
口①口口

口⑧⑧⑥
口口口⑥
⑦口口⑦ |--⑥---|
口口口口 |⑦-⑧-|
32
口④④⑤ |①-②-|
口③③⑤ |③--④-⑤|
口②口口
口口①口

⑥⑧⑧口
⑥口口口
口口口口 |--⑥---|
⑦口口⑦ |⑦-⑧-|
33
口口口口 |①---|
口①①口 |--②-|
②④⑤③ |③-④-|
口⑥口口 |⑤-⑥-|
34
口④④⑤ |①-②-|
口③③⑤ |③--④-⑤|
口②口口
口口①口

⑥⑧⑧口
⑥口口口
口口口口 |--⑥---|
⑦口口⑦ |⑦-⑧-|
35
⑤④④口 |①-②-|
⑤③③口 |③--④-⑤|
口口②口
口①口口

口⑧⑧⑥
口口口⑥
⑦口口⑦ |--⑥---|
口口口口 |⑦-⑧-|
36
口④④⑤ |①-②-|
口③③⑤ |③--④-⑤|
口②口口
口口①口

⑥口口口
⑥⑧⑧口
口口口口 |--⑥---|
⑦口口⑦ |⑦-⑧-|
37
口①①口 |①---|
口口口口 |----|
口口口口 |----|
口口口口 |----|
38
口⑧⑦口 |①-②-|
⑥口口⑤ |③-④-|
口④③口 |⑤-⑥-|
②口口① |⑦-⑧-|
39
口⑥⑤口 |①-②-|
⑧口口⑦ |③-④-|
④口口③ |⑤-⑥-|
口②①口 |⑦-⑧-|
40
口⑧⑦口 |①-②-|
⑥口口⑤ |③-④-|
口④③口 |⑤-⑥-|
②口口① |⑦-⑧-|
41
口⑥口③ |①-②-|
④⑧⑧口 |③-④-|
口口①⑤ |⑤-⑥-|
②口⑦口 |⑦-⑧-|

不確定度: 0

最終更新:2016年07月27日 15:25