ANTI-HERO
SEKAI NO OWARI

EXTREME

Level: 8
BPM: 105
Notes: 503

1
口口口口 |----|
口口口口 |----|
口口口口 |----|
口口口口 |----|
2
口口口口 |①---|
②口口口 |②---|
口口口口
口①①口

口口④口
口口口口
口口口口 |③---|
口③③口 |④---|
3
口②口口 |①---|
口口口口 |②---|
口口口口
口①①口

口口口口
口口口④
口口口口 |③---|
口③③口 |④---|
4
③③口⑥ |①-②-|
口口②⑧ |③-④-|
①⑤口④ |⑤-⑥-|
⑦⑦口口 |⑦-⑧-|
5
③口口③ |①---|
口④口口 |②---|
口①①口 |③---|
口②②口 |④---|
6
③⑧⑧③ |①-②-|
⑨口④⑨ |③--④-⑤|
⑤②⑦口 |--⑥--⑦|
口⑥①口 |⑧-⑨-|
7
③口⑤③ |①-②-|
口口口口 |③--④-⑤|
口②口口
④口①④

⑧⑥口⑧
⑨口口⑨
口口⑦口 |--⑥--⑦|
口口口口 |⑧-⑨-|
8
③⑧⑧③ |①-②-|
⑨口④⑨ |③--④-⑤|
⑤②⑦口 |--⑥--⑦|
口⑥①口 |⑧-⑨-|
9
③口口③ |①-②-|
口②④口 |③--④-⑤|
⑤口口口
口口①口

口口口口
口⑦口口
⑪口口⑩ |--⑥--⑦|
⑨⑥口⑧ |⑧-⑨⑩-⑪|
10
口③③口 |①-②-|
口口④① |③--④-⑤|
⑤口②口
口口口口

口⑧⑧口
⑨口口⑨
口口⑦口 |--⑥--⑦|
口⑥口口 |⑧-⑨-|
11
③口⑤③ |①-②-|
口口口口 |③--④-⑤|
口②口口
④口①④

⑧⑥口⑧
口口口口
⑨口⑦⑨ |--⑥--⑦|
口口口口 |⑧-⑨-|
12
③⑧⑧③ |①-②-|
⑨口④⑨ |③--④-⑤|
⑤②⑦口 |--⑥--⑦|
口⑥①口 |⑧-⑨-|
13
口口口口 |①---|
口口②口 |②---|
口①口②
①口口口

口③③口
③口口③
口④④口 |③---|
④口口④ |④---|
14
⑥口④⑥ |①-②③|
口③口口 |④--⑤-⑥|
口⑤⑤②
口①①口

口口口口
⑦口口⑦
⑧⑨口⑧ |-⑦-⑧|
口口口口 |--⑨-|
15
口口①口 |①②③-|
口②口口 |④-⑤⑥|
④口③⑤
口⑥⑥口

⑦口口⑦
口口口⑧
⑨口口口 |-⑦--|
口口口口 |--⑧⑨|
16
口口④口 |①-②③|
⑥③口⑥ |④-⑤⑥|
口⑤⑤②
口①①口

⑦口口⑦
口口口口
⑧口口⑧ |-⑦-⑧|
⑩口⑨口 |--⑨⑩|
17
口口①口 |①②③-|
口②口⑥ |④⑤⑥-|
口⑤③口
口口口④

⑧口口⑧
口口口口
口口⑨口 |⑦-⑧-|
口⑦⑦口 |---⑨|
18
口①口口 |①-②-|
口④④口 |③-④⑤|
口口口③
⑤②②口

口⑥⑥口
⑨口⑨⑦
口口口口 |-⑥-⑦|
口口⑧口 |⑧-⑨-|
19
③口②口 |①-②③|
口④口⑤ |-④⑤-|
口①口口
口口口口

口口口⑧
口口⑦口
口⑥⑥口 |-⑥--|
口⑥⑥口 |-⑦⑧-|
20
口口③口 |①-②-|
①⑤⑤① |③-④⑤|
口口口②
口④口口

⑩口⑨⑧
⑦⑪口口
口口⑥口 |-⑥⑦⑧|
口口口口 |--⑨⑩-⑪|
21
口口口口 |①-②③|
口口④① |④---|
口③口口
口口②口

口⑤⑤⑦
⑤口口⑤
口口口口 |⑤---|
口口口⑥ |-⑥⑦-|
22
口口口口 |①-②-|
口口⑤② |③-④⑤|
口③③口
④①①口

口⑥口口
⑦口口⑦
⑦⑨口⑦ |-⑥⑦-|
口口⑧口 |--⑧⑨|
23
口口口④ |①-②-|
口②①口 |③-④----⑤|
口⑤⑤口
③口口③

口口口口
口口口⑧
⑦口口口 |----|
口口口⑥ |-⑥⑦⑧|
24
①口口⑥ |①-②③|
⑤③③口 |-④⑤⑥|
口口口④
口②②口

口口口⑪
口⑩口口
口⑦⑦⑨ |-⑦-⑧|
口⑧⑧口 |-⑨⑩⑪|
25
口⑤⑤口 |-①②-|
④⑤⑤② |③④-⑤|
口口口口 |----|
③口口① |----|
26
口③口② |①-②③|
口口口口 |----|
口口口口
①①口口

⑤口⑦⑥
口口口口
口口口口 |④-⑤⑥-⑦|
口口④④ |----|
27
口口口口 |①②③④|
④口⑤① |⑤⑥⑦⑧|
口②口⑦
⑧⑥③口

口⑨⑨口
口⑪口口
口口口口 |⑨---|
口口⑩口 |--⑩⑪--|
28
⑨口⑤⑩ |①--②③④|
④口①⑧ |⑤--⑥-⑦|
⑥口③⑦ |--⑧--⑨|
②口口口 |--⑩-|
29
口①口口 |①---|
①口口口
①口口口
口口口口

③③口口
③③口口 |②----③|
③口②② |----|
口②②口 |----|
30
口①①⑥ |①--②-③|
口口⑥③ |④--⑤-⑥|
②⑥口⑤
⑥④④口

⑦⑧⑧口
⑨⑦口⑨
⑨口⑦⑨ |--⑦---|
口口口⑦ |⑧-⑨-|
31
口④口口 |①--②-③|
口⑤⑤口 |④--⑤-⑥|
⑥口③口
⑥②①口

口口口⑨
口⑩⑩口
口⑧口⑦ |--⑦--⑧|
口口口⑦ |⑨-⑩-|
32
口①①⑥ |①--②-③|
口口⑥③ |④--⑤-⑥|
②⑥口⑤
⑥④④口

⑦⑧⑧口
⑨⑦口⑨
⑨口⑦⑨ |--⑦---|
口口口⑦ |⑧-⑨-|
33
口口口口 |①---|
口口口口 |---②-③|
口口口口
③①①②

⑦口口⑤
口⑨⑨口
⑥口口④ |④-⑤⑥-⑦|
口⑧⑧口 |⑧-⑨-|
34
口①①⑥ |①--②-③|
口口⑥③ |④--⑤-⑥|
②⑥口⑤
⑥④④口

⑦⑧⑧口
⑨⑦口⑨
⑨口⑦⑨ |--⑦---|
口口口⑦ |⑧-⑨-|
35
口④口口 |①--②-③|
口⑤⑤口 |④--⑤-⑥|
⑥口③口
⑥②①口

口口口⑨
口⑩⑩口
口⑧口⑦ |--⑦--⑧|
口口口⑦ |⑨-⑩-|
36
口①①⑥ |①--②-③|
口口⑥③ |④--⑤-⑥|
②⑥口⑤
⑥④④口

⑦⑧⑧口
⑨⑦口⑨
⑨口⑦⑨ |--⑦---|
口口口⑦ |⑧-⑨-|
37
口口口口 |①---|
口口口口 |----|
口口口口 |----|
口①①口 |----|
38
④口口③ |①②③④|
口⑥口⑦ |⑤⑥⑦⑧|
②口⑤口
口⑧①口

口⑫口口
⑩口⑨口
口⑭⑮⑬ |⑨⑩⑪⑫|
口口⑪口 |⑬⑭⑮-|
39
⑥口口① |①②③④|
口②⑤口 |⑤⑥⑦⑧|
⑧口口⑦
④口口③

口⑩⑨⑪
⑫口⑬口
口⑭口口 |⑨⑩⑪⑫|
口口⑮口 |⑬⑭⑮-|
40
⑤口口口 |①②③④|
口③口② |⑤⑥⑦⑧|
⑦口⑥④
①口⑧口

⑬⑮⑯⑭
⑨口⑫⑩
口口口口 |⑨⑩⑪⑫|
口⑪口口 |⑬⑭⑮⑯|
41
口口口口 |①②③④|
⑦①⑥⑧ |⑤⑥⑦⑧|
口⑤②口
口③④口

口⑬口口
口⑭口口
⑨⑮口⑩ |⑨⑩⑪⑫|
⑪⑯口⑫ |⑬⑭⑮⑯----|

不確定度: 0

最終更新:2016年07月27日 15:25