ひだまりデイズ
妹S

BASIC

Level: 2
BPM: 134
Notes: 120

1
口口口口 |----|
口口口口 |----|
口口口口 |----|
口口口口 |----|
2
口口口口 |----|
口口口口 |----|
口口口口 |----|
口口口口 |----|
3
口口口口 |----|
口口口口 |----|
口口口口 |----|
口口口口 |----|
4
口口口口 |①---|
口口口口 |--②-|
口口口口 |----|
①②口口 |----|
5
口口口口 |①---|
口口口口 |--②-|
口口口口 |----|
口口②① |----|
6
口口口口 |①---|
口口口口 |--②-|
口口口口 |----|
①②口口 |----|
7
口口口口 |①---|
口口口口 |--②-|
口口口口 |----|
口口②① |----|
8
口口口口 |①---|
口口口口 |--②-|
①②口口 |----|
口口口口 |----|
9
口口口口 |①---|
口口口口 |--②-|
口口②① |----|
口口口口 |----|
10
口口口口 |①---|
口口口口 |--②-|
①②口口 |----|
口口口口 |----|
11
口口口口 |①---|
口口口口 |--②-|
口口②① |----|
口口口口 |----|
12
口口口口 |①---|
口口口口 |----|
口②口口 |②---|
口①口口 |----|
13
口②口口 |①---|
口①口口 |----|
口口口口 |②---|
口口口口 |----|
14
口口①口 |①---|
口口②口 |----|
口口口口 |②---|
口口口口 |----|
15
口口口口 |①---|
口口口口 |----|
口口①口 |----|
口口口口 |----|
16
①口口① |①---|
口口口口 |----|
口口口口 |----|
口口口口 |----|
17
口口口口 |①---|
口口①口 |----|
口口②口 |②---|
口口口口 |----|
18
口口口口 |①---|
口①口口 |----|
口②口口 |②---|
口口口口 |----|
19
口口口口 |----|
口口口口 |----|
口口口口 |----|
口口口口 |----|
20
口口口口 |①---|
口口口口 |----|
口口②口 |②---|
口口①口 |----|
21
口口②口 |①---|
口口①口 |----|
口口口口 |②---|
口口口口 |----|
22
口①口口 |①---|
口②口口 |----|
口口口口 |②---|
口口口口 |----|
23
口口口口 |①---|
口口口口 |----|
口①口口 |----|
口口口口 |----|
24
①口口① |①---|
口口口口 |----|
口口口口 |----|
口口口口 |----|
25
口口口口 |①---|
口①口口 |----|
口②口口 |②---|
口口口口 |----|
26
口口口口 |①---|
口口①口 |----|
口口②口 |②---|
口口口口 |----|
27
口口口口 |①---|
口②口口 |----|
口①口口 |②---|
口口口口 |----|
28
口口口口 |①---|
①②口口 |----|
口口口口 |②---|
口口口口 |----|
29
口口口口 |①---|
口口②口 |----|
口口①口 |②---|
口口口口 |----|
30
口口口口 |①---|
口口②① |----|
口口口口 |②---|
口口口口 |----|
31
口口口口 |①---|
口②口口 |----|
口①口口 |②---|
口口口口 |----|
32
口口口口 |①---|
①②口口 |----|
口口口口 |②---|
口口口口 |----|
33
口口口口 |①---|
口口②口 |----|
口口①口 |②---|
口口口口 |----|
34
口口口口 |①---|
口口②① |----|
口口口口 |②---|
口口口口 |----|
35
口口口口 |①---|
口②口口 |----|
口①口口 |②---|
口口口口 |----|
36
①口口① |①---|
口②②口 |----|
口口口口 |②---|
口口口口 |----|
37
口口口口 |①---|
口口口口 |----|
①口口① |②---|
口②②口 |----|
38
口口口口 |①---|
口口口口 |----|
口②②口 |②---|
①口口① |----|
39
口②②口 |①---|
①口口① |----|
口口口口 |②---|
口口口口 |----|
40
①口口① |①---|
口②②口 |----|
口口口口 |②---|
口口口口 |----|
41
口口口口 |①---|
口口口口 |----|
①口口① |②---|
口②②口 |----|
42
口口口口 |①---|
口①口口 |----|
口口①口 |----|
口口口口 |----|
43
口口口口 |①---|
口②②口 |----|
口①①口 |②---|
口口口口 |----|
44
①口口① |①---|
口②②口 |----|
口口口口 |②---|
口口口口 |----|
45
口口口口 |①---|
口口口口 |----|
①口口① |②---|
口②②口 |----|
46
口口口口 |①---|
口口口口 |----|
口②②口 |②---|
①口口① |----|
47
口②②口 |①---|
①口口① |----|
口口口口 |②---|
口口口口 |----|
48
①口口① |①---|
①口口① |----|
口口口口 |----|
口口口口 |----|
49
口口口口 |①---|
口①①③ |----|
口②②口 |②---|
口口口口 |--③-|
50
口口口口 |----|
①口口② |--①-|
口口口口 |----|
口口口口 |--②-|
51
口口口口 |----|
①口②口 |--①-|
口②口口 |----|
口口口口 |--②-|

不確定度: 0

最終更新:2016年07月14日 12:39