ひだまりデイズ
妹S

ADVANCED

Level: 5
BPM: 134
Notes: 261

1
口口口口 |----|
口口口口 |----|
口口口口 |----|
口口口口 |----|
2
口口口口 |①---|
③口口口 |--②-|
口口口② |----|
①口口口 |③---|
3
口口口口 |①---|
口口口③ |--②-|
②口口口 |----|
口口口① |③---|
4
口①口口 |①---|
①口口口 |②-③-|
口⑤④口 |--④-|
口③②口 |⑤---|
5
口口①口 |①---|
口口口① |②-③-|
口④⑤口 |--④-|
口②③口 |⑤---|
6
口①口口 |①---|
①口口口 |②-③-|
口⑤④口 |--④-|
口③②口 |⑤---|
7
②口口① |①-②-|
④口口③ |③-④-|
⑥口口⑤ |⑤-⑥-|
⑧口口⑦ |⑦-⑧-|
8
口口①口 |①---|
口口口① |②-③-|
口④⑤口 |--④-|
口②③口 |⑤---|
9
口①口口 |①---|
①口口口 |②-③-|
口⑤④口 |--④-|
口③②口 |⑤---|
10
口口①口 |①---|
口口口① |②-③-|
口④⑤口 |--④-|
口②③口 |⑤---|
11
①口口② |①-②-|
③口口④ |③-④-|
⑤口口⑥ |⑤-⑥-|
⑦口口⑧ |⑦-⑧-|
12
④⑥口口 |--①-|
⑤⑦口口 |②-③-|
口①②③ |④-⑤-|
口口口口 |⑥-⑦-|
13
口④口口 |--①-|
口⑤口口 |②-③-|
口①②③ |--④-|
口口口口 |⑤---|
14
口④口口 |--①-|
口⑤⑥口 |②-③-|
口①②③ |--④-|
口口口口 |⑤-⑥-|
15
口口口① |--①-|
口口口口 |----|
口口口口
口口口口

④口口④
口③③口
口②②口 |--②-|
口口口口 |③-④-|
16
口口口口 |----|
口口①① |----|
口口口口 |----|
口口口口 |--①-|
17
口口口口 |--①-|
①①口口 |--②-|
③③②② |--③-|
口口口口 |----|
18
口口口口 |①---|
口②③口 |--②-|
口口口口 |③---|
口①①口 |----|
19
口口口口 |----|
口口口口 |----|
口口口口 |----|
口口口口 |----|
20
口口⑤口 |--①-|
口口⑥④ |②-③-|
③②①口 |--④-|
口口口口 |⑤-⑥-|
21
口口④口 |--①-|
口口⑤口 |②-③-|
③②①口 |--④-|
口口口口 |⑤---|
22
口口④口 |--①-|
口⑥⑤口 |②-③-|
③②①口 |--④-|
口口口口 |⑤-⑥-|
23
①口口口 |--①-|
口口口口 |----|
口口口口
口口口口

④口口④
口③③口
口②②口 |--②-|
口口口口 |③-④-|
24
口口口口 |----|
①①口口 |----|
口口口口 |----|
口口口口 |--①-|
25
口口口口 |--①-|
口口①① |--②-|
②②③③ |--③-|
口口口口 |----|
26
口口口口 |①---|
口③②口 |--②-|
口口口④ |③---|
口①①口 |--④-|
27
③口⑥② |①---|
口口⑤口 |--②-|
①口④口 |③-④-|
口口口口 |⑤-⑥-|
28
①口口口 |----|
口②口口 |①---|
口口③口 |②---|
口口口口 |③---|
29
口⑤口口 |①---|
口④口口 |--②-|
口③口口 |--③-|
②口口① |④-⑤-|
30
口口口口 |----|
③口①口 |①-②-|
口口②口 |----|
口口口口 |--③-|
31
口口口口 |①-②-|
口①②③ |③-④-|
口口口④
口口口口

口⑦口口
口⑥口口
口⑤口口 |--⑤-|
口口口口 |⑥-⑦-|
32
口口口① |----|
口口②口 |①---|
口③口口 |②---|
口口口口 |③---|
33
口口口口 |①---|
口③口口 |--②-|
口④口口 |③---|
①口口② |④---|
34
口口口口 |①---|
口口①口 |--②-|
③口口口 |----|
口口②口 |--③-|
35
口口口口 |①-②-|
④①③⑥ |③---|
口⑤⑦② |④-⑤-|
口口口口 |⑥-⑦-|
36
①口口④ |--①-|
口②⑤口 |②-③-|
③口口⑥ |--④-|
口口口口 |⑤-⑥-|
37
①口口口 |--①-|
口②口口 |②-③-|
③口口口 |----|
口口口④ |④---|
38
口口口口 |①-②-|
口③②口 |③-④-|
口①④口
口口口口

口口口口
口口⑦口
口⑥口口 |--⑤-|
⑤口口口 |⑥-⑦-|
39
口口口口 |----|
①口口口 |①---|
口口②口 |②---|
口③④口 |③-④-|
40
④口口① |--①-|
口口②口 |②-③-|
口口口③ |--④-|
口口⑤口 |--⑤-|
41
⑤③口④ |①-②-|
口口②口 |③-④-|
口①口口 |----|
口口口口 |⑤---|
42
口口③口 |①-②-|
口②口口 |③---|
④口①口 |----|
口口口口 |④---|
43
口口口口 |①-②-|
④②①⑥ |--③-|
口⑤⑦③ |④-⑤-|
口口口口 |⑥-⑦-|
44
①口口④ |--①-|
口②⑤口 |②-③-|
③口口⑥ |--④-|
口口口口 |⑤-⑥-|
45
①口口口 |--①-|
口②口口 |②-③-|
③口口口 |----|
口口口④ |④---|
46
口口口口 |①-②-|
口③②口 |③-④-|
口①④口
口口口口

口口口口
口口⑦口
口⑥口口 |--⑤-|
⑤口口口 |⑥-⑦-|
47
③口口③ |----|
口②②口 |----|
口口口口 |①---|
口①①口 |②-③-|
48
口①①口 |----|
口口口口 |----|
口口口口 |----|
口口口口 |--①-|
49
口口口口 |①---|
②口口① |②---|
②口口①
口口口口

口口口口
⑤⑤⑤⑤
口④④口 |③---|
口③③口 |④-⑤-|
50
③口口① |--①-|
口口口口 |--②-|
口②④口 |--③-|
口口口口 |--④-|
51
③口口① |--①-|
口④④口 |--②-|
口②口口 |--③-|
口口口口 |--④-|

不確定度: 0

最終更新:2016年07月14日 12:39