ひだまりデイズ
妹S

EXTREME

Level: 7
BPM: 134
Notes: 346

1
口口口口 |----|
口口口口 |----|
口口口口 |----|
口口口口 |----|
2
口口口口 |①-②-|
口口口② |③-④-|
口④①口
口③口口

口口口口
⑤口口⑧
口口⑦口 |⑤-⑥-|
口口⑥口 |⑦-⑧-|
3
①口口③ |①-②-|
⑥②④⑧ |③-④-|
口⑤⑦口 |⑤-⑥-|
口口口口 |⑦-⑧-|
4
①口口③ |①---|
口②①口 |②-③-|
①口口口 |--④-|
口④⑤口 |⑤---|
5
口口口口 |①---|
①口口③ |②-③-|
口②①口 |--④-|
①④⑤口 |⑤---|
6
①口口③ |①---|
口②①口 |②-③-|
①口口口 |--④-|
口④⑤口 |⑤---|
7
②口口③ |①-②-|
口口口⑤ |③-④-|
④⑩⑪① |⑤-⑥⑦|
⑥⑧⑨⑦ |⑧⑨⑩⑪|
8
③口口① |①---|
口①②口 |②-③-|
口口口① |--④-|
口⑤④口 |⑤---|
9
口口口口 |①---|
③口口① |②-③-|
口①②口 |--④-|
口⑤④① |⑤---|
10
③口口① |①---|
口①②口 |②-③-|
口口口① |--④-|
口⑤④口 |⑤---|
11
②口③口 |①-②-|
口④口⑥ |③④⑤-|
⑤⑪⑫① |⑥-⑦⑧|
⑦⑨⑩⑧ |⑨⑩⑪⑫|
12
口口⑦口 |--①-|
②⑥③④ |②-③④|
①口⑤口 |--⑤-|
口口口口 |⑥-⑦-|
13
口口口口 |--①-|
②⑤口③ |②-③-|
①口④口 |--④-|
口口口口 |⑤---|
14
口口⑦口 |--①-|
②⑥③④ |②-③④|
①口⑤口 |--⑤-|
口口口口 |⑥-⑦-|
15
①口口口 |--①-|
①口口口 |----|
口口口口
口口口口

口口口口
④口口④
口③③口 |--②-|
②口口② |③-④-|
16
口口口① |----|
口口口口 |----|
口①口口 |----|
口口口口 |--①-|
17
口口口口 |--①-|
②口①口 |--②-|
①③口口 |--③-|
口口②③ |----|
18
口口口口 |①---|
口口口口 |--②-|
②口口③ |③---|
口①①口 |----|
19
口口口口 |①---|
口口口口 |②---|
口口口口 |③---|
④③②① |④---|
20
口⑦口口 |--①-|
④③⑥② |②-③④|
口⑤口① |--⑤-|
口口口口 |⑥-⑦-|
21
口口口口 |--①-|
③口⑤② |②-③-|
口④口① |--④-|
口口口口 |⑤---|
22
口⑦口口 |--①-|
④③⑥② |②-③④|
口⑤口① |--⑤-|
口口口口 |⑥-⑦-|
23
口口口① |--①-|
口口口① |----|
口口口口
口口口口

口口口口
④口口④
口③③口 |--②-|
②口口② |③-④-|
24
①口口口 |----|
口口口口 |----|
口口①口 |----|
口口口口 |--①-|
25
口口口口 |--①-|
口①口② |--②-|
口口③① |--③-|
③②口口 |----|
26
口口口口 |①---|
口口口④ |--②-|
③口口② |③---|
口①①口 |--④-|
27
③口口② |①---|
①口⑤⑥ |--②-|
口④口口 |③-④-|
口口口口 |⑤-⑥-|
28
口①口口 |----|
①口②口 |①---|
口②口③ |②---|
口口③口 |③---|
29
②口口② |①---|
⑤④口口 |--②-|
口口③口 |--③-|
①口口① |④-⑤-|
30
口口口口 |----|
③口①口 |①-②-|
口口②口 |----|
口口口口 |--③-|
31
口口口③ |①-②-|
口①②④ |③-④-|
口口口口
口口口口

口口口口
⑦⑥口口
口口⑤口 |--⑤-|
口口口口 |⑥-⑦-|
32
口口①口 |----|
口②口① |①---|
③口②口 |②---|
口③口口 |③---|
33
②口口② |①---|
口③④口 |--②-|
口④③口 |③---|
①口口① |④---|
34
口口口口 |①---|
②口口① |--②-|
②口③① |----|
口口口口 |--③-|
35
⑦口口口 |①-②-|
口④⑤③ |③---|
口①⑥口 |④-⑤-|
口②口口 |⑥-⑦-|
36
口④①口 |--①-|
④②⑤① |②-③-|
②⑥③⑤ |--④-|
⑥口口③ |⑤-⑥-|
37
③②①③ |--①-|
②口口① |②-③-|
口口口口 |----|
口④④口 |④---|
38
口⑦口⑦ |①-②-|
③口⑥① |③-④-|
口⑤口口 |--⑤-|
④口口② |⑥-⑦-|
39
口口口口 |----|
口口口口 |①---|
①口①口
口口口口

口口口口
口口口口
口③④口 |②---|
口②口② |③-④-|
40
①①口④ |--①-|
口口②② |②-③-|
③③口口 |--④-|
口⑤口口 |--⑤-|
41
④口③⑤ |①-②-|
②口口口 |③-④-|
口⑤④① |----|
口口口口 |⑤---|
42
④口口口 |①-②-|
口①②③ |③---|
口口口口 |----|
口口口口 |④---|
43
⑦口口口 |①-②-|
口④⑤③ |--③-|
口②⑥口 |④-⑤-|
口①口口 |⑥-⑦-|
44
口④①口 |--①-|
④②⑤① |②-③-|
②⑥③⑤ |--④-|
⑥口口③ |⑤-⑥-|
45
③②①③ |--①-|
②口口① |②-③-|
口口口口 |----|
口④④口 |④---|
46
口⑦口⑦ |①-②-|
③口⑥① |③-④-|
口⑤口口 |--⑤-|
④口口② |⑥-⑦-|
47
③口口③ |----|
口②②口 |----|
③口口③ |①---|
口①①口 |②-③-|
48
口口①口 |----|
口口口口 |----|
口口口口 |----|
口口口口 |--①-|
49
口①口① |①---|
口②①② |②---|
口口②口
口口口口

口口⑤⑤
口口口口
④③口③ |③---|
口口③口 |④-⑤-|
50
②②④④ |--①-|
口口口口 |--②-|
③③①① |--③-|
口口口口 |--④-|
51
②②口口 |--①-|
口口口口 |--②-|
口口①①
口口口口

口口④口
口④口④
③③④口 |--③-|
口口口口 |--④-|

不確定度: 0

最終更新:2016年07月14日 12:39