T・S・F in にっぽん!
橘・シルフィンフォード(CV:古川由利奈)

BASIC

Level: 3
BPM: 156
Notes: 192

1
口口口口 |----|
口口口口 |----|
口口口口 |----|
口口口口 |----|
2
口口口口 |----|
口口口口 |----|
口口口口 |----|
口口口口 |----|
3
口口口口 |①---|
口③口口 |②---|
口②口口 |③---|
口①口口 |----|
4
口口口口 |①---|
①口口口 |②---|
②口口口 |③---|
③口口口 |----|
5
口口口口 |①---|
口口③口 |②---|
口口②口 |③---|
口口①口 |----|
6
口口口口 |①---|
口口口① |②---|
口口口② |③---|
口口口③ |----|
7
口口口口 |①---|
口③口口 |②---|
口②口口 |③---|
口①口口 |----|
8
口口口口 |①---|
①口口口 |②---|
②口口口 |③---|
③口口口 |----|
9
口口口口 |①---|
口口③口 |②---|
口口②口 |③---|
口口①口 |----|
10
口口口口 |①---|
口口口① |②---|
口口口② |③---|
口口口③ |----|
11
口口口口 |----|
口口口口 |----|
口②①口 |--①-|
口口口口 |②---|
12
口口口口 |①---|
口口③① |②---|
口口④② |③---|
口口口口 |④---|
13
口口口口 |①---|
口①口口 |②---|
口②口口 |③---|
口③口口 |----|
14
口口口口 |①---|
②④口口 |②---|
①③口口 |③---|
口口口口 |④---|
15
口①口口 |①---|
口口口口 |----|
口口口口 |----|
口口口口 |----|
16
口口口口 |①---|
①③口口 |②---|
②④口口 |③---|
口口口口 |④---|
17
口口口口 |①---|
口口①口 |②---|
口口②口 |③---|
口口③口 |----|
18
口口口口 |①---|
口口④② |②---|
口口③① |③---|
口口口口 |④---|
19
口口①口 |①---|
口口口口 |----|
口口口口 |----|
口口口口 |----|
20
口口口口 |①---|
③④②① |②---|
口口口口 |③---|
口口口口 |④---|
21
口口口口 |①---|
口③②① |②---|
口口口口 |③---|
口口口口 |----|
22
口口口口 |①---|
口口口口 |②---|
①②④③ |③---|
口口口口 |④---|
23
口口口口 |①---|
口口口口 |----|
口①口口 |----|
口口口口 |----|
24
口口口口 |①---|
①②④③ |②---|
口口口口 |③---|
口口口口 |④---|
25
口口口口 |①---|
①②③口 |②---|
口口口口 |③---|
口口口口 |----|
26
口口口口 |①---|
口口口口 |②---|
③④②① |③---|
口口口口 |④---|
27
口口口口 |①---|
口口口口 |----|
口口①口 |----|
口口口口 |----|
28
口口口口 |①---|
口口口① |----|
口口口口 |②---|
口口口② |----|
29
口口口口 |①---|
②口口口 |----|
口口口口 |②---|
①口口口 |----|
30
口口口口 |①---|
口④③口 |②---|
口②①口 |③---|
口口口口 |④---|
31
口口①口 |①---|
口口口口 |----|
口口口口 |----|
口口口口 |----|
32
①口口② |①---|
口口口口 |----|
口口口口 |②---|
口口口口 |----|
33
口口口口 |①---|
①口口② |----|
口口口口 |②---|
口口口口 |----|
34
口口口口 |①---|
口口口口 |----|
口①①口 |----|
口口口口 |----|
35
口口口口 |①---|
口口口口 |----|
口②②口 |②---|
口①①口 |----|
36
口口口口 |①---|
②口口① |----|
口口口口 |②---|
口口口口 |----|
37
口③③口 |①---|
口②②口 |②---|
口①①口 |③---|
口口口口 |----|
38
口口口口 |①---|
①口口② |----|
口口口口 |②---|
口口口口 |----|
39
口①①口 |①---|
口②②口 |②---|
口③③口 |③---|
口口口口 |----|
40
口口口口 |①---|
②口口① |----|
口口口口 |②---|
口口口口 |----|
41
口③③口 |①---|
口②②口 |②---|
口①①口 |③---|
口口口口 |----|
42
口口口口 |①---|
①口口② |----|
口口口口 |②---|
口口口口 |----|
43
口口①口 |①---|
口①口口 |----|
口②②口 |②---|
口口口口 |----|
44
口口口口 |①---|
②口口① |----|
口口口口 |②---|
口口口口 |----|
45
口③③口 |①---|
口②②口 |②---|
口①①口 |③---|
口口口口 |----|
46
口口口口 |①---|
①口口② |----|
口口口口 |②---|
口口口口 |----|
47
口①①口 |①---|
口②②口 |②---|
口③③口 |③---|
口口口口 |----|
48
口口口口 |①---|
②口口① |----|
口口口口 |②---|
口口口口 |----|
49
口③③口 |①---|
口②②口 |②---|
口①①口 |③---|
口口口口 |----|
50
口口口口 |①---|
①口口② |----|
口口口口 |②---|
口口口口 |----|
51
口口①口 |①---|
口①口口 |----|
口②②口 |②---|
口口口口 |----|
52
口①口口 |①---|
口口①口 |----|
口口口口 |----|
口口口口 |----|
53
①①①① |①---|
口口口口 |----|
口口口口 |----|
口口口口 |----|
54
口口口口 |①---|
口③口口 |②---|
口②口口 |③---|
口①口口 |----|
55
口口口口 |①---|
①口口口 |②---|
②口口口 |③---|
③口口口 |----|
56
口口口口 |①---|
口口③口 |②---|
口口②口 |③---|
口口①口 |----|
57
口口口口 |①---|
口口口① |②---|
口口口② |③---|
口口口③ |----|
58
口口口口 |①---|
口③口口 |②---|
口②口口 |③---|
口①口口 |----|
59
口口口口 |①---|
①口口口 |②---|
②口口口 |③---|
③口口口 |----|
60
口口口口 |①---|
口口③口 |②---|
口口②口 |③---|
口口①口 |----|
61
口口口口 |①---|
口口口① |②---|
口口口② |③---|
口口口③ |----|
62
口口口口 |①---|
口①②口 |②---|
口③④口 |③---|
口口口口 |④---|
63
口口口口 |①---|
③口口② |②---|
③口口② |③---|
口①口口 |----|

不確定度: 0

最終更新:2016年07月14日 12:38