T・S・F in にっぽん!
橘・シルフィンフォード(CV:古川由利奈)

ADVANCED

Level: 7
BPM: 156
Notes: 391

1
口口口口 |----|
口口口口 |----|
口口口口 |----|
口口口口 |----|
2
②口口① |----|
口口口口 |----|
口口口口 |--①-|
口口口口 |②---|
3
⑦口口⑥ |①-②-|
口口②① |③-④-|
④③口口 |⑤-⑥-|
⑤口口口 |--⑦-|
4
⑥口口⑦ |①-②-|
①②口口 |③-④-|
口口③④ |⑤-⑥-|
口口口⑤ |--⑦-|
5
⑦口口⑥ |①-②-|
口口②① |③-④-|
④③口口 |⑤-⑥-|
⑤口口口 |--⑦-|
6
⑥口口⑦ |①-②-|
①②口口 |③-④-|
口口③④ |⑤-⑥-|
口口口⑤ |⑦---|
7
⑥口口⑦ |①-②-|
①②口口 |③-④-|
口口③④ |⑤-⑥-|
口口口⑤ |--⑦-|
8
⑦口口⑥ |①-②-|
口口②① |③-④-|
④③口口 |⑤-⑥-|
⑤口口口 |--⑦-|
9
⑥口口⑦ |①-②-|
①②口口 |③-④-|
口口③④ |⑤-⑥-|
口口口⑤ |--⑦-|
10
口口口口 |①-②-|
口口②① |③-④-|
④③口口 |⑤---|
⑤口口⑤ |----|
11
②口口① |----|
口口口口 |----|
口口口口 |--①-|
口口口口 |②---|
12
口口口口 |①-②-|
口口口口 |③-④-|
⑦⑧⑥⑤ |⑤-⑥-|
③④②① |⑦-⑧-|
13
④口②口 |①-②-|
⑤③口① |③-④-|
口口口口 |⑤---|
口口口口 |----|
14
口口口口 |①-②-|
口⑧⑥口 |③-④-|
⑦④②⑤ |⑤-⑥-|
③口口① |⑦-⑧-|
15
口口口口 |①---|
口口口① |----|
口口口口 |----|
口口口口 |----|
16
口口口口 |①-②-|
口口口口 |③-④-|
⑤⑥⑧⑦ |⑤-⑥-|
①②④③ |⑦-⑧-|
17
口②口④ |①-②-|
①口③⑤ |③-④-|
口口口口 |⑤---|
口口口口 |----|
18
口口口口 |①-②-|
①口口③ |③-④-|
⑤②④⑦ |⑤-⑥-|
口⑥⑧口 |⑦-⑧-|
19
③口口② |①---|
口口口口 |----|
口口口口 |--②-|
①口口口 |③---|
20
口口口口 |①-②-|
口口口口 |③-④-|
⑦⑧⑥⑤ |⑤-⑥-|
③④②① |⑦-⑧-|
21
④口②口 |①-②-|
⑤③口① |③-④-|
口口口口 |⑤---|
口口口口 |----|
22
口口口口 |①-②-|
口⑧⑥口 |③-④-|
⑦④②⑤ |⑤-⑥-|
③口口① |⑦-⑧-|
23
口口口口 |①---|
②口口① |②---|
④口口③ |③---|
口口口口 |④---|
24
口口口口 |①-②-|
口口口口 |③-④-|
⑤⑥⑧⑦ |⑤-⑥-|
①②④③ |⑦-⑧-|
25
口②口④ |①-②-|
①口③⑤ |③-④-|
口口口口 |⑤---|
口口口口 |----|
26
口口口口 |①-②-|
①口口③ |③-④-|
⑤②④⑦ |⑤-⑥-|
口⑥⑧口 |⑦-⑧-|
27
⑤口口④ |①---|
口口口口 |②---|
③口口口 |③-④-|
①口口② |⑤---|
28
口口口口 |①---|
口③①口 |②---|
③②④① |③---|
②口口④ |④---|
29
口口口口 |①-②-|
③口口② |③-④-|
⑤口口④ |⑤---|
①口口口 |----|
30
口口⑧口 |①-②-|
口⑦④口 |③-④-|
口⑤⑥③ |⑤-⑥-|
口①②口 |⑦-⑧-|
31
口口口口 |①---|
口口口① |----|
口口口口 |----|
口口口口 |----|
32
口口口口 |①---|
①①③③ |--②-|
口④②口 |③---|
口口口口 |--④-|
33
口口口口 |①---|
①①口口 |--②-|
口口②口
口口口口

口⑤④口
口⑥③口
口口口口 |③-④-|
口口口口 |⑤-⑥-|
34
口口口口 |①---|
口口口口 |②---|
①①④④ |③---|
③③②② |④---|
35
口③口口 |①-②-|
⑤口②④ |③---|
⑤①口④ |④---|
口口口口 |⑤---|
36
③①③① |①---|
口口口口 |②---|
口②④口 |③---|
口口口口 |④---|
37
口口口口 |①-②-|
⑤口②口 |③-④-|
口③⑥口 |⑤---|
①口④口 |⑥---|
38
③①口① |①---|
口④口口 |②---|
口②⑤口 |③-④-|
口口口⑥ |⑤-⑥-|
39
口口口② |①-②-|
①口口④ |③-④-|
③口⑥口 |⑤---|
⑤口口口 |⑥---|
40
③①③① |①---|
口口口口 |②---|
口②④口 |③---|
口口口口 |④---|
41
口口口口 |①-②-|
⑤口②口 |③-④-|
口③⑥口 |⑤---|
①口④口 |⑥---|
42
③①口① |①---|
口④口口 |②---|
口②⑤口 |③-④-|
口口口⑥ |⑤-⑥-|
43
口口口口 |①---|
②口①③ |----|
②①口③ |②---|
口口口口 |③---|
44
①③①③ |①---|
口口口口 |②---|
口④②口 |③---|
口口口口 |④---|
45
口口口口 |①-②-|
口②⑥⑤ |③-④-|
口⑥③口 |⑤---|
口④口① |⑥---|
46
①口①③ |①---|
口口④口 |②---|
口⑤②口 |③-④-|
⑥口口口 |⑤-⑥-|
47
②口口口 |①-②-|
④口⑥① |③-④-|
口⑥口③ |⑤---|
口口口⑤ |⑥---|
48
①③①③ |①---|
口口口口 |②---|
口④②口 |③---|
口口口口 |④---|
49
口口口口 |①-②-|
口②⑥⑤ |③-④-|
口⑥③口 |⑤---|
④口口① |⑥---|
50
①口①③ |①---|
口口④口 |②---|
口⑤②口 |③-④-|
⑥口口口 |⑤-⑥-|
51
口口口口 |①---|
①③③① |----|
②口口② |②---|
口口口口 |③---|
52
②①①口 |①---|
①③口① |----|
口口④口 |②-③-|
口口口⑤ |④-⑤-|
53
③口口② |①---|
①口口① |----|
①口口① |--②-|
口口口口 |③---|
54
⑦口口⑥ |①-②-|
口口②① |③-④-|
④③口口 |⑤-⑥-|
⑤口口口 |--⑦-|
55
⑥口口⑦ |①-②-|
①②口口 |③-④-|
口口③④ |⑤-⑥-|
口口口⑤ |--⑦-|
56
⑦口口⑥ |①-②-|
口口②① |③-④-|
④③口口 |⑤-⑥-|
⑤口口口 |--⑦-|
57
⑥口口⑦ |①-②-|
①②口口 |③-④-|
口口③④ |⑤-⑥-|
口口口⑤ |⑦---|
58
⑥口口⑦ |①-②-|
①②口口 |③-④-|
口口③④ |⑤-⑥-|
口口口⑤ |--⑦-|
59
⑦口口⑥ |①-②-|
口口②① |③-④-|
④③口口 |⑤-⑥-|
⑤口口口 |--⑦-|
60
⑥口口⑦ |①-②-|
①②口口 |③-④-|
口口③④ |⑤-⑥-|
口口口⑤ |--⑦-|
61
口口口口 |①-②-|
口口②① |③-④-|
④③口口 |⑤---|
⑤口口⑤ |----|
62
口口口口 |①-②-|
口口口口 |③-④-|
②①③④ |⑤-⑥-|
⑥⑤⑦⑧ |⑦-⑧-|
63
③口口② |①---|
③口口② |②---|
①口口口 |③---|
口口口口 |----|

不確定度: 0

最終更新:2016年07月14日 12:38