T・S・F in にっぽん!
橘・シルフィンフォード(CV:古川由利奈)

EXTREME

Level: 8
BPM: 156
Notes: 538

1
口口口口 |----|
口口口口 |----|
口口口口 |----|
口口口口 |----|
2
⑩②③⑨ |①-②③|
口④⑤① |④⑤⑥⑦|
⑩⑥⑦⑨ |⑧-⑨-|
口⑧口口 |⑩---|
3
⑥口口⑥ |①-②-|
③⑤⑤① |③-④-|
口②④口 |⑤-⑥-|
⑦口口口 |--⑦-|
4
口⑤⑤口 |①-②-|
⑥口口⑥ |③-④-|
③口口① |⑤-⑥-|
⑦②④口 |--⑦-|
5
⑥口口⑥ |①-②-|
口⑤⑤口 |③-④-|
③②④① |⑤-⑥-|
⑦口口口 |--⑦-|
6
⑦③①⑥ |①-②-|
①⑤⑤③ |③-④-|
⑦②④⑥ |⑤-⑥-|
口口口口 |⑦---|
7
⑥口口⑥ |①-②-|
③⑤⑤① |③-④-|
口②④口 |⑤-⑥-|
⑦口口口 |--⑦-|
8
口⑤⑤口 |①-②-|
⑥口口⑥ |③-④-|
③口口① |⑤-⑥-|
⑦②④口 |--⑦-|
9
⑥口口⑥ |①-②-|
口⑤⑤口 |③-④-|
③②④① |⑤-⑥-|
⑦口口口 |--⑦-|
10
⑤口口⑤ |①-②-|
②⑤⑤① |③-④-|
②④④① |⑤---|
口③③口 |----|
11
⑩②③⑨ |①-②③|
口④⑤① |④⑤⑥⑦|
⑩⑥⑦⑨ |⑧-⑨-|
口⑧口口 |⑩---|
12
口③口口 |①-②-|
口⑦②① |③-④-|
口④⑥⑤ |⑤-⑥-|
口⑧口口 |⑦-⑧-|
13
口③②口 |①-②-|
④⑤⑤① |③-④-|
口口口口 |⑤---|
口口口口 |----|
14
口口口口 |①-②-|
口⑤⑧口 |③-④-|
口⑥⑦口 |⑤-⑥-|
①③②④ |⑦-⑧-|
15
①口②① |①-②-|
口③口④ |③-④-|
⑤口⑥⑧ |⑤-⑥-|
口⑦口口 |⑦-⑧-|
16
口③口口 |①-②-|
口⑦①② |③-④-|
口④⑤⑥ |⑤-⑥-|
口⑧口口 |⑦-⑧-|
17
口③②口 |①-②-|
④⑤⑤① |③-④-|
口口口口 |⑤---|
口口口口 |----|
18
口口口口 |①-②-|
口⑦⑤口 |③-④-|
口⑧⑥口 |⑤-⑥-|
①②③④ |⑦-⑧-|
19
⑤口口④ |①---|
①③口① |②---|
口口口口 |③-④-|
口口②口 |⑤---|
20
口③口口 |①-②-|
口⑦②① |③-④-|
口④⑥⑤ |⑤-⑥-|
口⑧口口 |⑦-⑧-|
21
口③②口 |①-②-|
④⑤⑤① |③-④-|
⑥口口⑥ |⑤---|
口口口口 |⑥---|
22
口口口口 |①-②-|
口⑤⑧口 |③-④-|
口⑥⑦口 |⑤-⑥-|
①③②④ |⑦-⑧-|
23
①口②① |①-②-|
口③口④ |③-④-|
⑤口⑥⑧ |⑤-⑥-|
口⑦口口 |⑦-⑧-|
24
口③口口 |①-②-|
口⑦①② |③-④-|
口④⑤⑥ |⑤-⑥-|
口⑧口口 |⑦-⑧-|
25
口③②口 |①-②-|
④⑤⑤① |③-④-|
⑥口口⑥ |⑤---|
口口口口 |⑥---|
26
口口口口 |①-②-|
口⑦⑤口 |③-④-|
口⑧⑥口 |⑤-⑥-|
①②③④ |⑦-⑧-|
27
⑤口口④ |①---|
①③口① |②---|
口口口口 |③-④-|
口口②口 |⑤---|
28
口口口口 |①---|
①③①③ |②---|
口②④口 |③---|
④口口② |④---|
29
口口②口 |①-②-|
③口⑤口 |③-④-|
①④口口 |⑤---|
口口口口 |----|
30
口②③口 |①-②-|
口④⑧⑤ |③-④-|
口⑦口① |⑤-⑥-|
⑥口口口 |⑦-⑧-|
31
①②口① |①-②-|
③④口口 |③-④-|
⑤⑥口口 |⑤-⑥-|
⑦口口口 |⑦---|
32
口④①口 |①---|
④③⑥① |②-③-|
口口口口 |④---|
口⑤②口 |⑤-⑥-|
33
口口①口 |①---|
口③口① |②-③-|
口口口口
口口②口

④④⑦⑦
口口口口
⑥⑥⑤⑤ |④-⑤-|
口口口口 |⑥-⑦-|
34
口口口口 |①---|
①②④③ |②---|
口口口口 |③---|
③④②① |④---|
35
⑤口⑤口 |①-②-|
③口口③ |③---|
①②②① |④---|
口④口④ |⑤---|
36
⑤②④① |①--②|
口⑥③口 |--③-|
口口口口 |④--⑤|
口口口口 |--⑥-|
37
口②③口 |①-②-|
②⑥⑦③ |③-④-|
①⑤⑤④ |⑤---|
口①④口 |⑥-⑦-|
38
①口④② |①--②|
口口⑤口 |--③-|
口③⑥口 |④-⑤-|
口口⑦口 |⑥-⑦-|
39
口口口② |①-②-|
①①口④ |③-④-|
③③口口
口口口口

口口口口
口⑦口口
口口⑥口 |⑤---|
⑤⑤口口 |⑥-⑦-|
40
②⑤①④ |①--②|
口口③⑥ |--③-|
口口口口 |④--⑤|
口口口口 |--⑥-|
41
②口口③ |①-②-|
⑥②③⑦ |③-④-|
口①④口 |⑤---|
①⑤⑤④ |⑥-⑦-|
42
①⑤④② |①--②|
口⑦⑥口 |--③-|
口③口口 |④-⑤-|
口口口口 |⑥-⑦-|
43
③口③口 |①---|
①口口① |----|
①口口① |②---|
口②口② |③---|
44
⑤②④① |①--②|
口⑥③口 |--③-|
口口口口 |④--⑤|
口口口口 |--⑥-|
45
口②③口 |①-②-|
②⑥⑦③ |③-④-|
①⑤⑤④ |⑤---|
口①④口 |⑥-⑦-|
46
①口④② |①--②|
口口⑤口 |--③-|
口③⑥口 |④-⑤-|
口口⑦口 |⑥-⑦-|
47
口口口② |①-②-|
①①口④ |③-④-|
③③口口
口口口口

口口口口
口⑦口口
口口⑥口 |⑤---|
⑤⑤口口 |⑥-⑦-|
48
②⑤①④ |①--②|
口口③⑥ |--③-|
口口口口 |④--⑤|
口口口口 |--⑥-|
49
②口口③ |①-②-|
⑥②③⑦ |③-④-|
口①④口 |⑤---|
①⑤⑤④ |⑥-⑦-|
50
①⑤④② |①--②|
口⑦⑥口 |--③-|
口③口口 |④-⑤-|
口口口口 |⑥-⑦-|
51
口口口口 |①---|
①口口① |----|
①口口① |②---|
②口口③ |③---|
52
口口口② |①---|
③①①口 |----|
口①①④ |②-③-|
⑤口口口 |④-⑤-|
53
⑩②③⑨ |①-②③|
口④⑤① |④⑤⑥⑦|
⑩⑥⑦⑨ |⑧-⑨-|
口⑧口口 |⑩---|
54
⑥口口⑥ |①-②-|
③⑤⑤① |③-④-|
口②④口 |⑤-⑥-|
⑦口口口 |--⑦-|
55
口⑤⑤口 |①-②-|
⑥口口⑥ |③-④-|
③口口① |⑤-⑥-|
⑦②④口 |--⑦-|
56
⑥口口⑥ |①-②-|
口⑤⑤口 |③-④-|
③②④① |⑤-⑥-|
⑦口口口 |--⑦-|
57
⑦③①⑥ |①-②-|
①⑤⑤③ |③-④-|
⑦②④⑥ |⑤-⑥-|
口口口口 |⑦---|
58
⑥口口⑥ |①-②-|
③⑤⑤① |③-④-|
口②④口 |⑤-⑥-|
⑦口口口 |--⑦-|
59
口⑤⑤口 |①-②-|
⑥口口⑥ |③-④-|
③口口① |⑤-⑥-|
⑦②④口 |--⑦-|
60
⑥口口⑥ |①-②-|
口⑤⑤口 |③-④-|
③②④① |⑤-⑥-|
⑦口口口 |--⑦-|
61
口口口口 |①-②-|
②口口① |③-④-|
②④④①
口③③口

⑤口口⑤
口⑤⑤口
口口口口 |⑤---|
口口⑦⑥ |--⑥⑦|
62
口口②口 |①-②-|
①⑥口口 |③-④-|
口⑤⑦④ |⑤-⑥-|
⑧③口口 |⑦-⑧-|
63
③口口② |①---|
口口①口 |②---|
③口口② |③---|
口口口口 |----|

不確定度: 0

最終更新:2016年07月14日 12:38