勇者うまるの華麗なる生活
土間うまる(CV:田中あいみ)

BASIC

Level: 4
BPM: 169
Notes: 200

1
口口口口 |----|
口口口口 |----|
口口口口 |----|
口口口口 |----|
2
口口口口 |----|
口口口口 |----|
口口口口 |----|
口口口口 |----|
3
口口口口 |----|
口口口口 |----|
口口口口 |----|
口口口口 |----|
4
口口口口 |----|
口口口口 |----|
口口口口 |----|
口口口口 |----|
5
口口口口 |----|
口口口口 |----|
口口口口 |----|
口口口口 |----|
6
口口口口 |①---|
口口口口 |②---|
口③④口 |③---|
口①②口 |④---|
7
口③④口 |①---|
口①②口 |②---|
口口口口 |③---|
口口口口 |④---|
8
口口口口 |①---|
口口口口 |②---|
口③④口 |③---|
口①②口 |④---|
9
口③④口 |①---|
口①②口 |②---|
口口口口 |③---|
口口口口 |④---|
10
①口口① |①---|
口②②口 |----|
口口口口 |②---|
口口口口 |----|
11
口口口口 |①---|
口口口口 |----|
①口口① |②---|
口②②口 |----|
12
口口口口 |①---|
口③④口 |②---|
口①②口 |③---|
口口口口 |④---|
13
口①口口 |①---|
口口口口 |----|
口口口口 |----|
口口口口 |----|
14
口口口口 |①---|
①②③④ |②---|
口口口口 |③---|
口口口口 |④---|
15
口口口口 |①---|
口口口口 |②---|
①②③④ |③---|
口口口口 |④---|
16
口口口口 |①---|
口口口口 |②---|
口③④口 |③---|
口①②口 |④---|
17
口③④口 |①---|
口①②口 |②---|
口口口口 |③---|
口口口口 |④---|
18
口口口口 |①---|
④③②① |②---|
口口口口 |③---|
口口口口 |④---|
19
口口口口 |①---|
口口口口 |②---|
④③②① |③---|
口口口口 |④---|
20
口口口口 |①---|
口口口口 |②---|
口④③口 |③---|
口②①口 |④---|
21
口④③口 |①---|
口②①口 |②---|
口口口口 |③---|
口口口口 |④---|
22
口口口口 |①---|
①口口④ |②---|
口②③口 |③---|
口口口口 |④---|
23
①口口① |①---|
口口口口 |----|
口口口口 |②---|
口②②口 |----|
24
口口口口 |①---|
口③②口 |②---|
④口口① |③---|
口口口口 |④---|
25
口②②口 |①---|
口口口口 |----|
口口口口 |②---|
①口口① |----|
26
口口口口 |①---|
①②③④ |②---|
口口口口 |③---|
口口口口 |④---|
27
口口口口 |①---|
口口口口 |②---|
①②③④ |③---|
口口口口 |④---|
28
口口口口 |①---|
口口口口 |②---|
口③④口 |③---|
口①②口 |④---|
29
口③④口 |①---|
口①②口 |②---|
口口口口 |③---|
口口口口 |④---|
30
口口口口 |①---|
④③②① |②---|
口口口口 |③---|
口口口口 |④---|
31
口口口口 |①---|
口口口口 |②---|
④③②① |③---|
口口口口 |④---|
32
口口口口 |①---|
口口口口 |②---|
口④③口 |③---|
口②①口 |④---|
33
口④③口 |①---|
口②①口 |②---|
口口口口 |③---|
口口口口 |④---|
34
口口口口 |①---|
①①口口 |----|
②②口口 |②---|
口口口口 |----|
35
口口口口 |①---|
口口②② |----|
口口①① |②---|
口口口口 |----|
36
①①①① |①---|
口口口口 |----|
口口口口 |----|
口口口口 |----|
37
口口口口 |----|
口口口口 |----|
口口口口 |----|
口口口口 |----|
38
口口口口 |①---|
①②口口 |②---|
④③口口 |③---|
口口口口 |④---|
39
口口口口 |①---|
①②口口 |②---|
④③口口 |③---|
口口口口 |④---|
40
口口口口 |①---|
口口②① |②---|
口口③④ |③---|
口口口口 |④---|
41
口口口口 |①---|
口口②① |②---|
口口③④ |③---|
口口口口 |④---|
42
口口口口 |①---|
口口口口 |②---|
口④③口 |③---|
口①②口 |④---|
43
口口口口 |①---|
口口口口 |②---|
口④③口 |③---|
口①②口 |④---|
44
口口口口 |①---|
①①①① |----|
口口口口 |----|
口口口口 |----|
45
①口口口 |①---|
口口口口 |----|
口口口口 |----|
口口口口 |----|
46
口口口口 |①---|
口口口口 |②---|
①口口④ |③---|
口②③口 |④---|
47
口③②口 |①---|
④口口① |②---|
口口口口 |③---|
口口口口 |④---|
48
①口口① |①---|
口①①口 |----|
口口口口 |----|
口口口口 |----|
49
口口口口 |----|
口口口口 |----|
口口口口 |----|
口口口口 |----|
50
口口口口 |①---|
口口口口 |②---|
④口口① |③---|
口③②口 |④---|
51
口②③口 |①---|
①口口④ |②---|
口口口口 |③---|
口口口口 |④---|
52
口口口口 |①---|
口口口口 |----|
口①①口 |----|
①口口① |----|
53
口①②口 |----|
口口口口 |----|
口口口口 |①---|
口口口口 |②---|
54
口口口口 |①---|
口③①口 |②---|
口④②口 |③---|
口口口口 |④---|
55
口口口口 |①---|
③口口③ |②---|
②口口② |③---|
①口口① |----|
56
②口口② |①---|
口②②口 |--②-|
口①①口 |----|
口口口口 |----|
57
口口口口 |----|
口口口口 |----|
口口口口 |----|
口口口口 |----|
58
口口口口 |①---|
口口口口 |----|
①①②② |②---|
口口口口 |----|
59
①口口① |①---|
口②②口 |----|
口口口口 |②---|
口口口口 |----|

不確定度: 0

最終更新:2016年07月14日 12:37