勇者うまるの華麗なる生活
土間うまる(CV:田中あいみ)

ADVANCED

Level: 6
BPM: 169
Notes: 349

1
口口口口 |----|
口口口口 |----|
口口口口 |----|
口口口口 |----|
2
口⑦⑥口 |①-②-|
⑤②③口 |③-④-|
口①④口 |--⑤-|
口口口口 |⑥-⑦-|
3
口口口口 |--①-|
口②③口 |②-③-|
口口口① |--④-|
口④⑤口 |⑤---|
4
口⑦⑥口 |①-②-|
⑤②③口 |③-④-|
口①④口 |--⑤-|
口口口口 |⑥-⑦-|
5
口口口口 |--①-|
口②③口 |②-③-|
口口口① |----|
口口口口 |----|
6
口口口口 |①-②-|
④口⑤口 |③-④-|
②口③口 |⑤---|
口口①口 |----|
7
口口口口 |①-②-|
口⑤口④ |③-④-|
口③口② |⑤---|
口①口口 |----|
8
⑥口口⑤ |①-②-|
④⑥⑤口 |③-④-|
②口③口 |⑤---|
口口①口 |⑥---|
9
口口口口 |①-②-|
口⑤口④ |③-④-|
口③口② |⑤---|
口①口口 |----|
10
①①①① |①---|
②②②② |----|
口口口口 |②---|
口口口口 |----|
11
口口口口 |①---|
口口口口 |----|
①①①① |②---|
②②②② |----|
12
口口口口 |①---|
口②④口 |②---|
口①③口 |③---|
口口口口 |④---|
13
口⑦⑥口 |①-②-|
⑧口口⑤ |③-④-|
口①口④ |⑤-⑥-|
口②③口 |⑦-⑧-|
14
口口口口 |--①-|
口口口口 |②-③-|
⑦⑥⑤④ |④-⑤-|
口③②① |⑥-⑦-|
15
口⑤⑥⑦ |--①-|
①②③④ |②-③-|
口口口口 |④-⑤-|
口口口口 |⑥-⑦-|
16
口口口口 |①---|
口②④口 |②---|
口①③口 |③---|
口口口口 |④---|
17
口口口口 |①---|
口②④口 |②---|
口①③口 |③---|
口口口口 |④---|
18
口口口口 |--①-|
口口口口 |②-③-|
④⑤⑥⑦ |④-⑤-|
①②③口 |⑥-⑦-|
19
⑦⑥⑤口 |--①-|
④③②① |②-③-|
口口口口 |④-⑤-|
口口口口 |⑥-⑦-|
20
口口口口 |①---|
口④②口 |②---|
口③①口 |③---|
口口口口 |④---|
21
口口口口 |①---|
口④②口 |②---|
口③①口 |③---|
口口口口 |④---|
22
口口口口 |--①-|
口⑤⑥口 |②-③-|
④口⑦① |④-⑤-|
口③②口 |⑥-⑦-|
23
①口口口 |--①-|
口口口口 |--②-|
口口口口 |----|
②口口口 |----|
24
口口口口 |--①-|
口⑥⑤口 |②-③-|
①⑦口④ |④-⑤-|
口②③口 |⑥-⑦-|
25
②口口④ |①---|
③口口⑤ |②-③-|
口口①口 |--④-|
口口口口 |⑤---|
26
口口口口 |--①-|
口口口口 |②-③-|
⑦⑥⑤④ |④-⑤-|
口③②① |⑥-⑦-|
27
口⑤⑥⑦ |--①-|
①②③④ |②-③-|
口口口口 |④-⑤-|
口口口口 |⑥-⑦-|
28
口口口口 |①---|
口②④口 |②---|
口①③口 |③---|
口口口口 |④---|
29
口口口口 |①---|
口②④口 |②---|
口①③口 |③---|
口口口口 |④---|
30
口口口口 |--①-|
口口口口 |②-③-|
④⑤⑥⑦ |④-⑤-|
①②③口 |⑥-⑦-|
31
⑦⑥⑤口 |--①-|
④③②① |②-③-|
口口口口 |④-⑤-|
口口口口 |⑥-⑦-|
32
口口口口 |①---|
口④②口 |②---|
口③①口 |③---|
口口口口 |④---|
33
口口口口 |①---|
口④②口 |②---|
口③①口 |③---|
口口口口 |④---|
34
口口口口 |①---|
口口口口 |----|
②口口① |②---|
口②①口 |----|
35
③②②③ |①---|
口口口口 |②---|
④①①④ |③---|
口口口口 |④---|
36
口口口口 |①---|
①①①① |----|
口口口口 |----|
口口口口 |----|
37
口口口口 |①---|
口口口口 |----|
口口口口 |----|
口①①口 |----|
38
口口口④ |①---|
口口③口 |②---|
口②口口 |③---|
①口口口 |④---|
39
口口①口 |①---|
口②口④ |②---|
口口③口 |③---|
口口口口 |④---|
40
④口口口 |①---|
口③口口 |②---|
口口②口 |③---|
口口口① |④---|
41
口①口口 |①---|
④口②口 |②---|
口③口口 |③---|
口口口口 |④---|
42
④口口④ |①---|
口③③口 |②---|
口②②口 |③---|
①口口① |④---|
43
口口口口 |①---|
①口口① |②---|
②④④② |③---|
口③③口 |④---|
44
①①①① |①---|
口口口口 |----|
口口口口 |----|
口口口口 |----|
45
①口口口 |①---|
口口口口 |----|
口口口口 |----|
②口口① |--②-|
46
口口口口 |①-②-|
口口口口 |③-④-|
④⑥⑤⑦ |⑤-⑥-|
⑧②①③ |⑦-⑧-|
47
口口⑧口 |①-②-|
口⑤口⑦ |③-④-|
④口⑥口 |⑤-⑥-|
口②①③ |⑦-⑧-|
48
①口口① |①---|
口口口口 |----|
口口口口 |----|
口口口口 |----|
49
口口口⑥ |①-②-|
口⑤口口 |③-④-|
口③④口 |⑤---|
口①②口 |--⑥-|
50
③①②⑧ |①-②-|
⑦⑤⑥④ |③-④-|
口口口口 |⑤-⑥-|
口口口口 |⑦-⑧-|
51
③①②口 |①-②-|
口⑥口④ |③-④-|
⑦口⑤口 |⑤-⑥-|
口⑧口口 |⑦-⑧-|
52
口口口口 |①---|
口口口口 |----|
口口口口 |----|
①口口① |----|
53
口②①口 |①-②-|
口④③口 |③-④-|
⑥⑥⑤⑤ |⑤---|
口口口口 |⑥---|
54
②②①① |①---|
口口口口 |②---|
口口口口 |③---|
④④③③ |④---|
55
②口口② |①---|
口①①口 |②---|
③口口③ |③---|
口口④口 |--④-|
56
口口④口 |①-②-|
口③口口 |③-④-|
口口②口 |----|
口①口口 |----|
57
⑥④口⑤ |①-②-|
口口③口 |③-④-|
口②口口 |⑤---|
口口①口 |⑥---|
58
口口口口 |--①-|
口⑥⑤④ |②-③-|
①②③口 |--④-|
口口口口 |⑤-⑥-|
59
⑤口口⑥ |--①-|
⑦口口④ |②-③-|
①②③口 |④-⑤-|
口口口口 |⑥-⑦-|
60
口⑦⑥口 |①-②-|
⑤②③口 |③-④-|
口①④口 |--⑤-|
口口口口 |⑥-⑦-|
61
口口口口 |--①-|
口②③口 |②-③-|
口口口① |--④-|
口④⑤口 |⑤---|
62
口⑦⑥口 |①-②-|
⑤②③口 |③-④-|
口①④口 |--⑤-|
口口口口 |⑥-⑦-|
63
口口口口 |--①-|
口②③口 |②-③-|
口口口① |----|
口口口口 |----|

不確定度: 0

最終更新:2016年07月14日 12:37