勇者うまるの華麗なる生活
土間うまる(CV:田中あいみ)

EXTREME

Level: 9
BPM: 169
Notes: 533

1
口口口口 |----|
口口口口 |----|
口口口口 |----|
口口口口 |----|
2
口口③口 |①-②-|
口⑦④口 |③-④-|
⑤②⑥口 |--⑤-|
口①口口 |⑥-⑦-|
3
口口口口 |--①-|
口口③口 |②-③-|
④②口① |--④-|
⑤口口口 |⑤---|
4
口口③口 |①-②-|
口⑦④口 |③-④-|
⑤②⑥口 |--⑤-|
口①口口 |⑥-⑦-|
5
口口口口 |--①-|
⑥⑥口① |②-③-|
④②口⑤ |--④-|
④口③⑤ |⑤-⑥-|
6
⑥④⑦③ |①-②③|
口口①① |④-⑤⑥|
口②⑤口 |⑦---|
⑧口口⑧ |⑧---|
7
口口口口 |①-②③|
⑥④⑦③ |④-⑤⑥|
①口口① |⑦---|
⑧②⑤⑧ |⑧---|
8
⑪⑥③⑦ |①-②③|
⑫④口⑧ |④-⑤⑥|
⑬①①⑨ |⑦⑧⑨⑩|
⑭②⑤⑩ |⑪⑫⑬⑭|
9
口⑥③口 |①-②③|
口④口口 |④-⑤⑥|
口①①口
口②⑤口

口口口口
口口⑦口
⑧⑧⑧⑧ |⑦---|
口口口口 |⑧---|
10
⑥口①口 |①---|
口②②① |②---③④|
口⑥口口 |⑤---|
口⑤④③ |⑥---|
11
口口①① |①-②③|
⑥口口⑦ |④⑤⑥⑦|
④口口⑤
②口口③

⑧口口⑨
口⑨⑧口
口口口口 |⑧---|
口口口口 |⑨---|
12
口口口口 |①-②-|
⑦口口③ |③-④-|
⑧②⑥④ |⑤-⑥-|
⑤口口① |⑦-⑧-|
13
口⑧⑦口 |①-②-|
口口口⑥ |③-④-|
口④⑤口 |⑤-⑥-|
口③②① |⑦-⑧-|
14
①口口① |①-②-|
②口口口 |③-④-|
③口口⑧ |⑤-⑥-|
④⑤⑥⑦ |⑦-⑧-|
15
④③②① |--①-|
口口⑥口 |②-③-|
口⑦⑤口 |④-⑤-|
口口口口 |⑥-⑦-|
16
口口口口 |①-②-|
口口口口 |③-④-|
③⑦⑤① |⑤-⑥-|
④⑧⑥② |⑦-⑧-|
17
口口口口 |①-②-|
口口⑧口 |③-④-|
③口⑤① |⑤-⑥⑦|
④⑦⑥② |⑧---|
18
口口口口 |--①-|
口口口① |②-③-|
⑦口口② |④-⑤-|
⑥⑤④③ |⑥-⑦-|
19
①②③④ |--①-|
口⑤⑦口 |②-③-|
口⑥口口 |④-⑤-|
口口口口 |⑥-⑦-|
20
口口口口 |①-②-|
口⑤⑦口 |③-④-|
①⑥⑧③ |⑤-⑥-|
②口口④ |⑦-⑧-|
21
①口口③ |①-②-|
②口口④ |③-④-|
口⑤⑦口 |⑤-⑥-|
口⑥⑧口 |⑦-⑧-|
22
口⑥⑤口 |--①-|
①②③④ |②-③-|
⑦口口口 |④-⑤-|
口⑦口口 |⑥-⑦-|
23
口口口① |--①-|
②口①② |--②-|
口口口口 |--③-|
④口口③ |--④-|
24
口口⑦口 |--①-|
口⑤⑥口 |②-③-|
④③②① |④-⑤-|
口口口口 |⑥-⑦-|
25
口①口口 |①---|
②口口④ |②-③-|
③②④⑤ |--④-|
口口口口 |⑤---|
26
口口口口 |--①-|
①口口口 |②-③-|
②口口⑦ |④-⑤-|
③④⑤⑥ |⑥-⑦-|
27
④③②① |--①-|
口口⑥口 |②-③-|
口⑦⑤口 |④-⑤-|
口口口口 |⑥-⑦-|
28
口口口口 |①-②-|
口③⑦口 |③-④-|
⑥⑧④② |⑤-⑥-|
口⑤①口 |⑦-⑧-|
29
口口口口 |①-②-|
口③⑦口 |③-④-|
⑥⑧④② |⑤-⑥-|
口⑤①口 |⑦-⑧-|
30
口口口口 |--①-|
口口口① |②-③-|
⑦口口② |④-⑤-|
⑥⑤④③ |⑥-⑦-|
31
①②③④ |--①-|
口⑤⑦口 |②-③-|
口⑥口口 |④-⑤-|
口口口口 |⑥-⑦-|
32
①⑦⑥⑤ |①-②③|
⑩⑨⑧口 |④-⑤⑥|
⑪口口口 |⑦-⑧⑨|
④③②口 |⑩-⑪-|
33
①口口口 |①-②-|
口口口口 |③-④-|
口②③④
口②③④

⑧⑦⑥⑤
⑧⑦⑥⑤
口口口口 |⑤-⑥-|
口口口口 |⑦-⑧-|
34
口口口⑦ |①---②-|
口⑥⑤口 |③---④-|
④①⑧③ |⑤---⑥-|
①②①口 |⑦---⑧-|
35
②③③③ |①---|
口口②① |②---|
②①口口 |③---|
④④④① |④---|
36
口口口口 |①---|
①口口① |----|
口①①口 |②---|
②口口② |----|
37
④口口⑧ |①-②-|
口③⑦口 |③-④-|
②口口⑥ |⑤-⑥-|
口①⑤口 |⑦-⑧-|
38
口口口口 |--①-|
⑦⑥④② |②-③-|
口口口口 |④-⑤-|
口⑤③① |⑥-⑦-|
39
①③⑤口 |①-②-|
口口口口 |③-④-|
②④口口 |⑤---|
口口⑥口 |⑥---|
40
口口口口 |--①-|
②④⑥⑦ |②-③-|
口口口口 |④-⑤-|
①③⑤口 |⑥-⑦-|
41
口⑤③① |①-②-|
口⑥口口 |③-④-|
口⑦④② |⑤-⑥-|
口口口口 |⑦---|
42
②口⑦③ |--①-|
口口口口 |②-③-|
口⑥口口 |④-⑤-|
④口⑤① |⑥-⑦-|
43
口④口口 |①-②-|
口⑤①口 |③-④-|
⑥口③⑥ |⑤---|
口②口口 |⑥---|
44
口口口口 |①-②-|
口⑦⑥口 |③-④-|
⑤③②⑧ |⑤-⑥-|
①口口④ |⑦-⑧-|
45
①①口口 |①---|
①口口口 |----|
口口口③ |----|
②口口口 |--②③|
46
口⑦⑩口 |①-②③|
①口④⑥ |④-⑤⑥|
⑨③口⑫ |⑦-⑧⑨|
⑪⑤②⑧ |⑩-⑪⑫|
47
口口口④ |①-②③|
③①⑥⑩ |④-⑤⑥|
⑦口②口 |⑦-⑧-|
⑨⑤口⑧ |⑨-⑩-|
48
口①②① |①-②-|
口⑦③⑥ |③-④-|
口①④① |⑤---|
口口⑤口 |⑥-⑦-|
49
⑪⑧口⑨ |①②③④|
⑥口⑦⑫ |⑤⑥⑦⑧|
口⑩③⑤ |⑨---|
④②⑩① |⑩-⑪⑫|
50
⑪⑤②⑧ |①-②③|
⑨③口⑫ |④-⑤⑥|
①口④⑥ |⑦-⑧⑨|
口⑦⑩口 |⑩-⑪⑫|
51
⑨⑤口⑧ |①-②③|
⑦口②口 |④-⑤⑥|
③①⑥⑩ |⑦-⑧-|
口口口④ |⑨-⑩-|
52
口口口口 |①---|
②①口① |--②③|
③⑥⑤⑦ |④-⑤-|
④①口① |⑥-⑦-|
53
口⑨⑩口 |①②③④|
⑦③②⑥ |⑤⑥⑦⑧|
⑤⑨⑩口 |⑨---|
口①⑧④ |⑩---|
54
①⑦⑥② |①-②-|
口①②口 |③-④-|
③⑤⑧④ |⑤-⑥-|
口③④口 |⑦-⑧-|
55
②口口② |①---|
口口③口 |②---|
④③口④ |③---|
①⑤③① |④-⑤-|
56
口⑧④口 |①-②-|
⑥③⑦② |③-④-|
口⑤①口 |⑤-⑥-|
口口口口 |⑦-⑧-|
57
⑥⑨⑧⑦ |①-②③|
⑧口口⑨ |④⑤⑥⑦|
④口①⑤ |⑧---|
口②③口 |⑨---|
58
⑧口口④ |①-②-|
口⑦③口 |③-④-|
口②⑥口 |⑤-⑥-|
①①⑤⑤ |⑦-⑧-|
59
口口口④ |①-②-|
⑤口③⑧ |③-④-|
⑦②口⑥ |⑤-⑥-|
①①口口 |⑦-⑧-|
60
口口③口 |①-②-|
口⑦④口 |③-④-|
⑤②⑥口 |--⑤-|
口①口口 |⑥-⑦-|
61
口口口口 |--①-|
口口③口 |②-③-|
④②口① |--④-|
⑤口口口 |⑤---|
62
口口③口 |①-②-|
口⑦④口 |③-④-|
⑤②⑥口 |--⑤-|
口①口口 |⑥-⑦-|
63
口口口口 |--①-|
口口口① |②-③-|
口②口口 |----|
口口③口 |----|

不確定度: 0

最終更新:2016年07月14日 12:37