六花にくちづけ
Akhuta

ADVANCED

Level: 7
BPM: 210
Notes: 538

1
口口口口 |----|
口口口口 |----|
口口口口 |----|
口口口口 |----|
2
口口口口 |①---|
④①①口 |----|
口①①③ |--②-|
②口口口 |③-④-|
3
口口①口 |①-②-|
口②⑥⑤ |③-④-|
口⑦③口 |--⑤-|
口④口口 |⑥-⑦-|
4
③③③口 |①---|
②②口口 |--②-|
①口口口 |----|
口口口口 |③---|
5
口口口口 |--①-|
②③口口 |----|
口口④⑤ |②-③-|
①①①① |④-⑤-|
6
口口口① |①---|
口口口⑥ |②-③-|
⑤③口口 |--④-|
②口口④ |⑤-⑥-|
7
口①④④ |①-②-|
口③口口 |③-④-|
口⑥②口 |--⑤-|
⑤口⑦口 |⑥-⑦-|
8
口③③③ |①---|
口口②② |--②-|
口口口① |----|
口口口口 |③---|
9
①口口④ |①---|
口口口口 |②---|
口口口口 |③---|
②口口③ |④---|
10
口①①口 |①---|
③口口③ |②-③-|
④口口④ |--④-|
⑤②②⑤ |--⑤-|
11
口口口口 |----|
口口③口 |----|
口②①口 |--①-|
口口口口 |②-③-|
12
⑤①①⑤ |①---|
④口口④ |②-③-|
③口口③ |--④-|
口②②口 |--⑤-|
13
口口口口 |----|
口③口口 |----|
口①②口 |--①-|
口口口口 |②-③-|
14
②②①① |①---|
口口⑤口 |--②-|
口④口口 |--③-|
口口③口 |④-⑤-|
15
口口⑤口 |①-②-|
①⑥口口 |③-④-|
口口⑦② |--⑤-|
③口口④ |⑥-⑦-|
16
口口口口 |①---|
口③③③ |--②-|
②②口口 |----|
口①口口 |③---|
17
①口口④ |①---|
口口口口 |②---|
口口口口 |③---|
②口口③ |④---|
18
口口口口 |①---|
口①①口 |----|
口①①口 |----|
口口口口 |----|
19
口口口口 |----|
口口口口 |----|
口口口口 |----|
口口口口 |----|
20
口口口口 |①---|
口口②① |--②-|
口口口口 |----|
口口口口 |----|
21
口①口口 |----|
口②口口 |①---|
口③口口 |②---|
口口口口 |③---|
22
口口口口 |①---|
口口②① |--②-|
口口口口 |----|
口口口口 |----|
23
口①口口 |----|
口②口口 |①---|
口③口口 |②---|
口口口口 |③---|
24
口口口口 |①---|
口口②① |--②-|
口③口口 |----|
口口口口 |③---|
25
口口口口 |①---|
口口口口 |--②-|
口④②① |----|
口口③口 |③-④-|
26
口口口口 |①---|
②③①口 |--②-|
口口口口 |----|
口口口口 |③---|
27
口口口口 |①---|
口口口口 |--②-|
口口②① |----|
口口口口 |----|
28
口口口口 |①---|
口口②① |--②-|
口口口口 |----|
口口口口 |----|
29
口口①口 |----|
口②口口 |①---|
口口③口 |②---|
口口口口 |③---|
30
口口口口 |①---|
口③口口 |--②-|
口②口口 |----|
口①口口 |③---|
31
口口口口 |①---|
口口口口 |----|
口③①口 |----|
口口②口 |②-③-|
32
口口口口 |①---|
②③①口 |--②-|
口口口口 |----|
口口口口 |③---|
33
口口口口 |①---|
口口口口 |--②-|
口口②① |----|
口③口口 |③---|
34
口口口口 |①---|
口口口口 |----|
口①口口 |----|
口口口口 |----|
35
口口口口 |①---|
①口口② |----|
口口口口 |②---|
口口口口 |----|
36
口①口口 |①---|
口②口口 |②---|
口③口口 |③---|
口④口口 |④---|
37
口口口口 |①---|
③口口② |----|
口口口口 |②---|
口口①口 |③---|
38
①①口口 |①---|
口口口口 |②---|
③③口口 |③---|
④④②② |④---|
39
口口①① |①---|
②②口口 |②---|
④④口口 |③---|
口口③③ |④---|
40
口口口口 |①---|
④④①① |②---|
口口②② |③---|
③③口口 |④---|
41
②②口口 |①---|
口口口口 |----|
口口口口 |②---|
口口①① |----|
42
口口口口 |①---|
口口②① |--②-|
口口②① |----|
口口口口 |----|
43
口①口口 |----|
口②口口 |①---|
口③口口 |②---|
口口口口 |③---|
44
口口口口 |①---|
口口②① |--②-|
口口②① |----|
口口口口 |----|
45
口口口口 |----|
口口③口 |①---|
口②口口 |②---|
口口①口 |③---|
46
①①口口 |①---|
②②口口 |--②-|
口口口口 |----|
口③③口 |③---|
47
口口①① |①---|
口口②② |--②-|
③⑤④口 |--③-|
口口口口 |④-⑤-|
48
口口口口 |①---|
口③③口 |--②-|
口口口① |----|
口②②口 |③---|
49
①口口① |①---|
口口口口 |--②-|
口口口口 |----|
②口口② |----|
50
口口口口 |①---|
口口②① |--②-|
口口②① |----|
口口口口 |----|
51
口口口口 |----|
口口③口 |①---|
口②口口 |②---|
口口①口 |③---|
52
②①口② |①---|
③口口③ |--②-|
口口口口 |----|
口口口口 |③---|
53
口口②口 |①---|
口③口口 |----|
口①①口 |----|
口口口口 |②-③-|
54
②口口② |①---|
口口口口 |--②-|
口口①口 |----|
③口口③ |③---|
55
②口口② |①---|
口口口口 |--②-|
口①①口 |----|
③口口③ |③---|
56
口口口口 |①---|
口口口口 |----|
口①①口 |----|
口口口口
57
口口口口 |----|
口口口口 |----|
口口口口 |①---|
①口口口
58
口口口口 |①---|
②③口口 |----②-|
口口口口 |③---|
口口口①
59
口口口③ |①---|
口口③口 |②---|
②口口① |③---|
口②①口
60
口口口口 |①---|
②③口④ |----②-|
口口口口 |③---④-|
①口口口
61
口口口口 |①---|
口口①口 |----|
口口口口 |②---|
②口口口
62
④口口口 |①---|
②③口口 |----②-|
口口口口 |③---④-|
口口口①
63
口口口③ |①---|
口口③口 |②---|
②口口① |③---|
口②①口
64
口口口口 |①---|
③④口⑤ |②---③-|
口口口口 |④---⑤-|
①口口②
65
口口口口 |①---|
口口①口 |----|
②口口口 |----②-|
口口口口
66
⑤口口口 |①---|
③④口② |②---③-|
口①口口 |④---⑤-|
口口口口
67
口口口③ |①---|
口口③口 |②---|
②口口① |③---|
口②①口
68
口口口⑥ |①---②-|
④⑤口口 |③---④-|
口口③② |⑤---⑥-|
①口口口
69
口口①口 |①---|
口口口口 |----|
口口口口 |②---|
②口口口
70
②口口口 |①---|
⑤口④③ |②---③-|
口口口口 |④---⑤-|
口口口①
71
口口口口 |①---|
口①口口 |----|
口口口口 |②---|
口②②口
72
口口①① |①---|
口口③③ |②---|
口口②② |③---|
口口口口
73
①①口口 |①---|
③③口口 |②---|
②②口口 |③---|
口口口口
74
②口口① |①---|
口口口口 |--②-|
口口口口 |----|
①口口②
75
口②①口 |①---|
口口口口 |--②-|
口口口口 |----|
口①②口
76
口口口口 |①---|
口①①口 |----|
口①①口 |----|
口口口口
77
口口口口 |----|
口口口口 |----|
口口口口 |①---|
口①①口
78
口口②口 |①---|
①③⑥① |②-③-|
①口口① |--④-|
⑤口口④ |⑤-⑥-|
79
①①口口 |--①-|
③③口口 |②---|
④④②② |③---|
口口口口 |④---|
80
②②②② |①---|
③口口③ |--②-|
口③③口 |----|
①①口口 |③---|
81
口口①口 |----|
口口口① |----|
口口口口 |----|
口口口口 |①---|
82
口①口口 |①---|
①口③口 |②-③-|
口口②口 |--④-|
④⑤⑥口 |⑤-⑥-|
83
口口①① |----|
②②口口 |①---|
口口③③ |②---|
口口口口 |③---|
84
③口口④ |①---|
口口②口 |--②-|
口②口口 |----|
①①口口 |③-④-|
85
口口口口 |----|
口口口口 |----|
口口口口 |----|
口①①口 |①---|
86
口①①口 |①---|
口口口口 |②-③-|
②③⑤④ |--④-|
口口口口 |⑤---|
87
④③②① |①---|
口口口口 |②---|
口口口口 |③---|
①②③④ |④---|
88
口口③③ |①---|
口①①口 |--②-|
口①①口 |----|
②②口口 |③---|
89
②②口口 |①---|
口①①口 |----|
口①①口 |----|
口口口口 |②---|
90
口口口口 |①---|
②③⑤④ |②-③-|
口口口口 |--④-|
口口①① |⑤---|
91
①②③④ |①---|
口口口口 |②---|
口口口口 |③---|
④③②① |④---|
92
口口口口 |①---|
②①①② |--②-|
②①①② |----|
口口口口 |----|
93
口口口口 |----|
口口口口 |----|
口口口口 |----|
口①①口 |①---|
94
口口②口 |①---|
①③⑥① |②-③-|
①口口① |--④-|
⑤口口④ |⑤-⑥-|
95
口口口口 |----|
②②口口 |①---|
③③①① |②---|
口口口口 |③---|
96
②②②② |①---|
③口口③ |--②-|
口③③口 |----|
①①口口 |③---|
97
口口①口 |----|
口口口① |----|
口口口口 |----|
口口口口 |①---|
98
口①口口 |①---|
①口⑤口 |②---|
③④口② |③---|
口③②口 |④-⑤-|
99
④口口④ |--①-|
口②口口 |②---|
口口①口 |③---|
③口口③ |④---|
100
口②②口 |①---|
②③③② |--②-|
③口口③ |----|
口①①口 |③---|
101
口口口口 |----|
口口口口 |----|
口口口口 |--①-|
口③②① |②-③-|
102
口口口③ |①---|
④②②口 |--②-|
口口口⑤ |--③-|
①口口口 |④-⑤-|
103
①①③③ |----|
口口口口 |①---|
②②口口 |②---|
口口口口 |③---|
104
口④⑤口 |①---|
④③③⑤ |②---|
口口①① |③---|
口②②口 |④-⑤-|
105
口口口口 |----|
口口口口 |----|
口②口口 |----|
口口①口 |①-②-|
106
口口口口 |①---|
口口①口 |----|
口口口口 |----|
口口口口 |----|
107
口口③③ |①---|
口口口③ |--②-|
①口口② |----|
①①②② |③---|
108
口①口口 |①---|
①①②口 |--②-|
口②②③ |----|
口口③③ |③---|
109
①口口口 |----|
口②口口 |①---|
口口③口 |②---|
口口口口 |③---|
110
口口口口 |①---|
口口口② |--②-|
口口口口 |----|
口口口① |----|

不確定度: 0

最終更新:2017年07月30日 19:12