六花にくちづけ
Akhuta

EXTREME

Level: 9
BPM: 210
Notes: 694

1
口口口口 |----|
口口口口 |----|
口口口口 |----|
口口口口 |----|
2
口口口口 |①---|
口口④口 |----|
口③②口 |--②-|
①①①① |③-④-|
3
①口口② |①-②-|
口口口口 |③-④-|
⑤⑥⑦口 |--⑤-|
③口口④ |⑥-⑦-|
4
③①②③ |①---|
①③③② |--②-|
口口口口 |----|
口口口口 |③---|
5
口口口口 |--①-|
口口口口 |----|
②①①⑤ |②-③-|
①③④① |④-⑤-|
6
①①①① |①---|
③③口口 |②-③-|
④⑤⑥口 |--④-|
口口口② |⑤-⑥-|
7
口①口④ |①-②-|
⑥口③口 |③-④-|
口⑦口② |--⑤-|
口口⑤口 |⑥-⑦-|
8
口口口口 |①---|
口口口口 |--②-|
口口口口 |----|
①②③口 |③---|
9
③①口⑥ |①---|
④口②⑦ |②-③④|
⑧⑧⑤⑤ |⑤-⑥⑦|
口口口口 |⑧---|
10
③①①④ |①---|
⑤③④⑤ |②-③-|
⑤口口⑤ |--④-|
④②②③ |--⑤-|
11
口口口口 |----|
口③②口 |----|
口口口口 |--①-|
①口口口 |②-③-|
12
③②②④ |①---|
⑤口口⑤ |②-③-|
⑤④③⑤ |--④-|
④①①③ |--⑤-|
13
口口口① |----|
口口口口 |----|
口②③口 |--①-|
口口口口 |②-③-|
14
口①①口 |①---|
口②②口 |--②-|
口口口口 |--③-|
③⑤口④ |④-⑤-|
15
⑤口口① |①-②-|
②④④⑥ |③-④-|
⑦口口③ |--⑤-|
口口口口 |⑥-⑦-|
16
口口口口 |①---|
口③③口 |--②-|
口②②口 |----|
口①①口 |③---|
17
①①①① |①---|
口⑧⑦口 |②---|
口⑥⑤口 |③-④-⑤-|
②④③② |⑥-⑦-⑧-|
18
①①①① |①---|
口口口口 |----|
口口口口 |----|
口口口口 |----|
19
口口口口 |----|
口口口口 |----|
口口口口 |----|
口口口口 |----|
20
口口口口 |①---|
口口口口 |--②-|
口口口口 |----|
①②口口 |----|
21
口口口口 |----|
口口口③ |①---|
口口口② |②---|
口口口① |③---|
22
口口②① |①---|
口口口口 |--②-|
口口口口 |----|
口口口口 |----|
23
口①口口 |----|
口③口口 |①---|
口②口口 |②---|
口口口口 |③---|
24
口口口口 |①---|
口口口口 |--②-|
口口口口 |----|
②①③口 |③---|
25
口口口口 |①---|
口口①② |--②-|
口口④口 |----|
口③口口 |③-④-|
26
③②口口 |①---|
口①口口 |--②-|
口口口口 |----|
口口口口 |③---|
27
口口口口 |①---|
口口口口 |--②-|
①口口口 |----|
口②②口 |----|
28
①口口① |①---|
口口口口 |--②-|
口口口口 |----|
②口口② |----|
29
口口口口 |----|
口③③口 |①---|
口②②口 |②---|
口①①口 |③---|
30
②①①② |①---|
口口口口 |--②-|
口口口口 |----|
③口口③ |③---|
31
口②口口 |①---|
口口③口 |----|
口①①口 |----|
口口口口 |②-③-|
32
口口口口 |①---|
口口口口 |--②-|
口口②③ |----|
口①①口 |③---|
33
口口口口 |①---|
口口口口 |--②-|
③②口口 |----|
口①①口 |③---|
34
⑤口口② |①---|
口口口口 |②---|
⑤③④② |③-④-|
①口口① |⑤---|
35
口③口③ |①---|
①口①口 |②---|
口④口口 |③---|
口口②口 |④---|
36
②口①口 |①---|
口②口① |②---|
④口③口 |③---|
口④口③ |④---|
37
口③口② |①---|
③口口④ |②---|
口⑤口① |③-④-|
⑤口①⑥ |⑤-⑥-|
38
③口口④ |①---|
口③④口 |②---|
①口①② |③---|
口①②口 |④---|
39
④①①口 |①---|
口④口① |②---|
②口③口 |③---|
口②口③ |④---|
40
口①①① |①---|
②口②口 |②---|
口③口③ |③---|
④口④口 |④---|
41
②口口口 |①---|
口口口① |----|
②口口口 |②---|
口口口① |----|
42
③口口② |①---|
口口①口 |--②-|
口①口口 |----|
②口口口 |③---|
43
口①口口 |----|
口口口② |①---|
口口口口 |②---|
口③口口 |③---|
44
②口口③ |①---|
口①口口 |--②-|
口口①口 |----|
口口口② |③---|
45
口口②口 |----|
口口口口 |①---|
①口口口 |②---|
口③口口 |③---|
46
口③口② |①---|
口口①口 |--②-|
口①口口 |----|
②口③口 |③---|
47
②口口口 |①---|
口①③口 |--②-|
口④①口 |--③-|
口口⑤② |④-⑤-|
48
口口口口 |①---|
③②③口 |--②-|
口口口② |----|
①①口口 |③---|
49
口口口① |①---|
口口口口 |--②-|
②口口② |----|
口①口口 |----|
50
②口口③ |①---|
口①口口 |--②-|
口口①口 |----|
口口口② |③---|
51
口口①口 |----|
口口口口 |①---|
②口口口 |②---|
口口③口 |③---|
52
①③口② |①---|
口口口口 |--②-|
口口口口 |----|
②口③① |③---|
53
口口①口 |①---|
③②④口 |--②-|
口口②口 |----|
口①口口 |③-④-|
54
口口口口 |①---|
口③口② |--②-|
口②口口 |----|
①①口③ |③---|
55
口口②① |①---|
③口口口 |--②-|
②口口口 |----|
口①口③ |③---|
56
④⑤口② |①---|
口③③口 |②-③-|
口①①口 |--④⑤|
口口口口
57
口口口口 |①---|
口口口口 |----|
口口口① |②---|
口②②①
58
②口③口 |①---|
口①①口 |----②-|
④口口口 |③---④-|
口口口口
59
口口口口 |①---②-|
口口⑤③ |③---④-|
口口①口 |⑤---|
口口④②
60
口①①口 |①---|
口④口口 |----②-|
口口口口 |③---④-|
口②口③
61
⑤③④② |①---|
口口口① |②-③-④-|
口口口口 |⑤---|
口口口口
62
口③口② |①---|
口口口口 |----②-|
口口口④ |③---④-|
口①①口
63
口口口口 |①---②-|
③⑤口口 |③---④-|
口①口口 |⑤---|
②④口口
64
口①①口 |①---|
⑤口口③ |②---③-|
④口口② |④---⑤-|
口口口口
65
口口②口 |①---|
口①①口 |②---③-|
⑤口口④ |④---⑤-|
③口口口
66
②口③口 |①---|
口口口① |②---③-|
口④口⑤ |④---⑤-|
口口口口
67
口口口口 |①---②-|
口口⑤③ |③---④-|
口口口口 |⑤---|
①口④②
68
①⑥⑤① |①---②-|
口④口口 |③---④-|
口口③口 |⑤---⑥-|
口②口口
69
口口口口 |①---|
口口口口 |----|
口口口口 |②---|
②口①②
70
①口口① |①---|
④口口口 |②---③-|
③口⑤口 |④---⑤-|
口②②口
71
口口口口 |①---|
口口①口 |----|
口②口口 |②---|
口口口口
72
①口口① |①---|
口②口口 |②---|
①口③① |③---|
口口口口
73
口②口口 |①---|
①口口① |②---|
口口口口 |③---|
①口③①
74
口⑥口① |①-②-|
④④①口 |③-④-|
口口口③ |⑤-⑥-|
口②口⑤
75
④口口⑤ |①-②-|
口口口① |③-④-|
⑥④①口 |⑤-⑥-|
②口③口
76
口③③口 |①--②|
口口口口 |--③-|
口口口① |-④--|
④②口①
77
口口口口 |①---|
口①①口 |----|
口口口口 |②---|
口②②口
78
①①①① |①---|
⑥③②⑥ |②-③-|
③⑤④② |--④-|
口口口口 |⑤-⑥-|
79
④②②③ |--①-|
口口口口 |②---|
④口口③ |③---|
口①①口 |④---|
80
口④④口 |①---|
口①①口 |②-③-|
口④④口 |----|
②口③③ |④---|
81
④口口⑧ |①-②-|
口③⑦口 |③-④-|
②口口⑥ |⑤-⑥-|
口①⑤口 |⑦-⑧-|
82
③⑥②⑥ |①---|
⑤③口② |②-③-|
口①①口 |--④-|
①口④① |⑤-⑥-|
83
口口口口 |----|
口口口口 |①---|
①②③口 |②---|
①②③口 |③---|
84
口口⑦② |①---|
③③⑥口 |②-③-|
口口⑤① |----|
口口④① |④⑤⑥⑦|
85
③①口口 |①-②-|
口口口⑤ |③-④-|
④②口口 |--⑤-|
⑥⑥口口 |⑥---|
86
口口口③ |①---|
①⑤②口 |②-③-|
口③④口 |--④-|
口口①⑤ |⑤---|
87
②④①③ |①---|
口口口口 |②---|
口口口口 |③---|
①③②④ |④---|
88
口口③③ |①---|
口②口① |--②-|
②口①口 |----|
③③口口 |③---|
89
口①口② |①---|
②口①口 |----|
口①口口 |----|
口口①口 |②---|
90
③口②口 |①---|
口③口② |②-③-|
④口⑤① |--④-|
①④口⑤ |⑤---|
91
口①⑦② |①---|
口口⑥口 |②---|
口口⑤口 |③---|
③口④口 |④⑤⑥⑦|
92
③①口口 |①-②-|
口⑧⑧⑥ |③-④-|
④②口口 |⑤-⑥-|
口口⑦⑤ |⑦-⑧-|
93
③口①口 |--①-|
④口口口 |--②-|
⑤①②② |③-④-|
②②口口 |⑤---|
94
⑤③②口 |①---|
口①①口 |②-③-|
口②③④ |--④-|
⑥⑥口口 |⑤-⑥-|
95
口口①③ |----|
口②口口 |①---|
③①口口 |②---|
口口②口 |③---|
96
②口②口 |①---|
③口口③ |--②-|
口③③口 |----|
口①口① |③---|
97
④口口⑧ |①-②-|
口③⑦口 |③-④-|
②口口⑥ |⑤-⑥-|
口①⑤口 |⑦-⑧-|
98
口③⑤口 |①---|
③②口⑤ |②---|
②①①口 |③---|
①口④① |④-⑤-|
99
①口口④ |--①-|
口口④口 |②---|
口②③口 |③---|
②口口③ |④---|
100
口口⑥口 |①---|
①口⑤① |--②-|
②口④② |----|
口口③口 |③④⑤⑥|
101
③①口口 |①-②-|
⑤口口口 |③-④-|
④②口口 |--⑤-|
⑦口口⑥ |⑥-⑦-|
102
②④③① |①---|
口②①口 |--②-|
⑤口口⑤ |--③-|
口口口口 |④-⑤-|
103
②口③① |----|
口口口口 |①---|
口口口口 |②---|
③①②口 |③---|
104
口①口⑤ |①---|
口④②⑤ |②---|
⑤②④口 |③---|
⑤③③① |④-⑤-|
105
①口口口 |----|
②口口口 |①-②-|
口⑥口④ |③-④-|
口⑤口③ |⑤-⑥-|
106
②①口① |①---|
口口口口 |②---|
口口口口 |③---|
④口口③ |④---|
107
口②口口 |①---|
口口口② |--②-|
①口口③ |----|
口③①口 |③---|
108
④口①① |①-②-|
口⑥③⑦ |③-④-|
④②⑦口 |⑤-⑥-|
口口口⑤ |⑦---|
109
口②口口 |----|
口口口口 |①---|
口口③口 |②---|
口口①口 |③---|
110
口口口口 |①---|
口①口口 |--②-|
口口口口 |----|
口口②口 |----|

不確定度: 0

最終更新:2017年07月30日 19:12