枝に結ぶ願い [2]
Akhuta

ADVANCED

Level: 8
BPM: 204
Notes: 519

1
口口口口 |----|
口口口口 |----|
口口口口 |----|
口口口口 |----|
2
③口口① |①---|
口④②口 |②---|
口口口口 |③---|
口口口口 |④---|
3
口口口口 |①---|
③口口① |②---|
口④②口 |③---|
口口口口 |④---|
4
口③①口 |①---|
④口口② |②---|
口口口口 |③---|
口口口口 |④---|
5
口口口口 |①---|
口③①口 |②---|
④口口② |③---|
口口口口 |④---|
6
口④④口 |①---|
②口口② |②---|
口③③口 |③---|
①口口① |④---|
7
口④④口 |①---|
②口口② |②---|
口③③口 |③---|
①口口① |④---|
8
④口口④ |①---|
口②②口 |②---|
③口口③ |③---|
口①①口 |④---|
9
④口口④ |①---|
口②②口 |②---|
③口口③ |③---|
口①①口 |④---|
10
口口口口 |①---|
口口口口 |----|
口口口口
口口

口口口口
口口口口
口口口口 |②---|
口 |----|
11
口口口口 |①---|
口口口口 |----|
口口
口口

口口口口
口口口口
口 |②---|
口口口口 |----|
12
口口口口 |①---|
口口 |----|
口口
口口口口

口口口口

口口口口 |②---|
口口口口 |----|
13
口口 |①---|
口口 |----|
口口口口
口口口口


口口口口
口口口口 |②---|
口口口口 |----|
14
口口 |①---|
口口②④ |②---|
口口③① |③---|
口口口口 |④---|
15
口口①口 |①---|
口②口口 |②---|
③口口口 |③---|
口④口口 |④---|
16
③口口口 |①---|
④②口口 |②---|
口口①口 |③---|
口口口口 |④---|
17
口①口口 |①---|
口口②口 |②---|
口口口③ |③---|
口口④口 |④---|
18
口③口口 |①---|
②口④口 |②---|
口①口口 |③---|
口口口口 |④---|
19
口③③口 |①---|
口口口口 |②---|
口①口口 |③---|
口口②口 |----|
20
③口④口 |①---|
口③②④ |②---|
口口②口 |③---|
①①口口 |④---|
21
口③口口 |①---|
口③口④ |②---|
口①④口 |③---|
①口②② |④---|
22
③口口② |①---|
口口口④ |②---|
①③口② |③---|
口①④口 |④---|
23
口口口④ |①---|
①口②口 |②---|
口③④② |③---|
①③口口 |④---|
24
口①②口 |①---|
口口口② |②---|
①口口④ |③---|
③③④口 |④---|
25
口③③口 |①---|
①口口② |②---|
口①口口 |③---|
口口口② |----|
26
|①---|
口口②口 |----|
口口口口 |②---|
口口①口 |----|
27
口口口口 |①---|
口口口② |----|
口①口口 |②---|
口口口口 |----|
28
口口口口 |①---|
口口口口 |----|
口口口口 |----|
|----|
29
口口口口 |----|
口口口口 |----|
口口口口 |----|
口口口口 |----|
30
口口口 |①---|
口口口口
口口口口
口口口
31
口口口口 |①---|
口口口① |②-③-|
⑦③②⑥ |④-⑤-|
口⑤④口 |⑥-⑦-|
32
口口口口 |①-②-|
⑤口口⑤ |③-④-|
口④③⑥ |⑤---|
②口⑦① |⑥-⑦-|
33
⑥口⑤口 |①-②-|
口④口口 |③-④-|
①口③口 |⑤---|
口②口口 |⑥---|
34
口口口① |①---|
⑦③②⑥ |②-③-|
口⑤④口 |④-⑤-|
口口口口 |⑥-⑦-|
35
⑤口口⑤ |①-②-|
口④③⑥ |③-④-|
②口⑦① |⑤---|
口口口口 |⑥-⑦-|
36
口④④口 |①-②-|
①口口口 |③---|
口②口口 |④---|
口③③口 |----|
37
口口口口 |----|
口口口口 |----|
口口口口 |----|
口口口口 |----|
38
口③口口 |①---|
③口口口 |--②-|
口②②口 |----|
口①①口 |③---|
39
口口口口 |----|
口口口① |①---|
口口口② |②---|
口口口③ |③---|
40
口口②口 |----|
①口口口 |--①-|
口口口② |----|
口①口口 |②---|
41
口口口① |----|
口②口口 |①---|
口口口③ |②---|
口口口口 |③---|
42
口口口② |①---|
②口口口 |----|
口口口口 |----|
口①口口 |②---|
43
①口口口 |①---|
口口口① |--②-|
③口口③ |----|
口②②口 |③---|
44
口口②口 |①---|
口③口② |--②-|
口①①口 |----|
口口口口 |③---|
45
口②口口 |①---|
②口①口 |--②-|
口③③口 |----|
口口口口 |③---|
46
口口②口 |①---|
口③口口 |----|
口口④口 |--②-|
口①①口 |③-④-|
47
口口口④ |①---|
口口口③ |②---|
口口口② |③---|
口①口口 |④---|
48
③口口口 |①---|
口②口口 |--②-|
口口①口 |----|
口口口口 |③---|
49
口④③口 |①---|
④口口③ |②---|
①口口② |③---|
口①②口 |④---|
50
①口②① |①---|
口③口口 |----|
口口④口 |--②-|
口口口口 |③-④-|
51
④口口口 |①---|
③口口口 |②---|
②口口口 |③---|
口①口口 |④---|
52
口口口口 |①---|
口口口口
口口口
口口口

口口口口
口口 |--②-|
口口
口口口

口口口口

口口口 |----|
口口口口 |③---|
53
口口口 |--①-|
口口口 |----|
口口
口口口口


口口口口
口口口口 |②---|
口口口口 |----|
54
口口口 |①---|
|----|
|----|
口口口口 |----|
55
口口 |①---|
口口① |----|
口口① |②---|
口口口口 |----|
56
口口口 |①---|
口口 |----|
口口口口
口口口口

口口口口
口口口
口口 |②---|
口口口口 |----|
57
口口口口 |①---|
口口口口 |----|
口口
口口口

口口口口
口口
口口口 |②---|
口口口 |----|
58
口口 |①---|
口 |----|
口口
口口口口

口口口
口口口
|②---|
口口口 |----|
59
⑥①① |①---|
口②⑤口 |②-③-|
④口③口 |--④-|
口口口口 |⑤-⑥-|
60
④口口口 |----|
口口③口 |--①-|
②口口口 |--②-|
口①①口 |③-④-|
61
口口①⑤ |①-②-|
口⑤口④ |--③-|
口④②③ |--④-|
口③口口 |--⑤-|
62
②③口口 |----|
口口④口 |--①-|
口口口口 |--②-|
口①①口 |③-④-|
63
口口④③ |①---|
口⑤口① |--②-|
口口口口 |--③-|
口②②口 |④-⑤-|
64
⑤口口口 |①---|
①口④口 |--②-|
③口口口 |--③-|
口②②口 |④-⑤-|
65
口②口 |①---|
口③口 |②---|
口④口 |③---|
口口口 |④---|
66
口口口口 |①---|
①口口 |----|
①③口 |②---|
口②口口 |③---|
67
⑥①①口 |①---|
口②⑤口 |②-③-|
④口③口 |--④-|
口口口口 |⑤-⑥-|
68
④口口口 |----|
口口③口 |--①-|
②口口口 |--②-|
口①①口 |③-④-|
69
口口①⑤ |①-②-|
口⑤口④ |--③-|
口④②③ |--④-|
口③口口 |--⑤-|
70
口口①口 |----|
口③②口 |----|
口口口口 |--①-|
口口口口 |②-③-|
71
口③口口 |①---|
③口口口 |--②-|
口①口② |----|
口口②口 |③---|
72
口口⑥⑥ |①---②-|
口④⑤⑥ |--③---|
②③④口 |④---⑤-|
①②口口 |--⑥---|
73
⑤口口口 |----|
口口口④ |①---|
③口口口 |②-③-|
口①①② |④-⑤-|
74
口②②口 |--①-|
口口口口 |--②-|
③①①③ |----|
口口口口 |③---|
75
①口②① |----|
口③口口 |①---|
口口④口 |②-③-|
口⑤口口 |④-⑤-|
76
口口口口 |--①-|
口口①口 |②-③-|
口②口口 |----|
④口③④ |④---|
77
①口口① |①---|
②口口② |----|
口口口口 |----|
口口口口 |②---|
78
口口口口 |①---|
口③③口 |--②-|
口①①口 |----|
②口口② |③---|
79
口口 |①---|
口口 |----|
口口 |----|
口口 |----|
80
口口 |----|
口①①口 |①---|
口③口口 |②---|
口②口口 |③---|
81
⑥①①口 |①---|
口②⑤口 |②-③-|
④口③口 |--④-|
口口口口 |⑤-⑥-|
82
④口口口 |----|
口口③口 |--①-|
②口口口 |--②-|
口①①口 |③-④-|
83
口口①⑤ |①-②-|
口⑤口④ |--③-|
口④②③ |--④-|
口③口口 |--⑤-|
84
口口①口 |----|
口③②口 |----|
口口口口 |--①-|
口口口口 |②-③-|
85
口③口口 |①---|
③口口口 |--②-|
口①口② |----|
口口②口 |③---|
86
口 |①---|
口①口口 |----|
口口①口 |②---|
口口口口 |----|
87
口口① |----|
口口口口 |----|
口口口口 |①---|
口口口口 |----|
88
口口口口 |①---|
口③ |--②-|
②口 |----|
口口口① |③---|
89
口口①口 |----|
口口②口 |①---|
口口③口 |②---|
口口口口 |③---|
90
口口口口 |①---|
口③口 |--②-|
口口② |----|
口口①口 |③---|
91
⑦①口口 |--①-|
口口⑥② |②-③-|
⑤③口口 |④-⑤-|
口口④口 |⑥-⑦-|
92
口口①口 |①---|
口②口口 |--②-|
口口③口 |----|
口口口口 |③---|
93
口口口① |----|
口口口② |①---|
口口口③ |②---|
口口口口 |③---|
94
口口口口 |①---|
口口口口 |----|
口②口口 |----|
口口口① |②---|
95
口口③口 |①---|
口②口口 |--②-|
口口①口 |----|
口口口口 |③---|
96
②口口① |①---|
②口口① |②---|
④口口③ |③---|
④口口③ |④---|
97
②口口① |①---|
②口口① |②---|
④口口③ |③---|
④口口③ |④---|
98
口②①口 |①-②-|
口④③口 |③-④-|
口⑥⑤口 |⑤-⑥-|
口⑧⑦口 |⑦-⑧-|
99
⑥口口⑤ |①-②-|
④⑦⑦③ |③-④-|
②口口① |⑤-⑥-|
口口口口 |⑦---|
100
口口口口 |①---|
口口口口 |----|
|----|
|----|
101
口口口口 |----|
口口口口 |①---|
口口口口 |----|
|----|
102
口口口口 |----|
口口口口 |----|
口口口口 |----|
口口口口 |----|
103
口口口口 |①---|
口口口口 |②-③-|
⑤③②⑤ |--④-|
①④④① |--⑤-|
104
口口口口 |--①-|
口②①口 |②---|
口口口口 |----|
口口口口 |----|

不確定度: 0

最終更新:2017年07月30日 19:11