星宿る空の下で
Akhuta

EXTREME

Level: 9
BPM: 204
Notes: 859

1
口口口口 |----|
口口口口 |----|
口口口口 |----|
口口口口 |----|
2
口口口③ |①---|
②④①⑤ |②-③-|
⑤①④② |--④-|
③口口口 |--⑤-|
3
①①②④ |--①-|
③⑤②⑦ |②---|
口②口⑥ |③-④⑤|
口②①① |⑥-⑦-|
4
②⑤③口 |①-②-|
口口口口 |③-④-|
口口⑥口 |⑤-⑥-|
①⑦④口 |⑦---|
5
口口口③ |①---|
②④①⑤ |②-③-|
⑤①④② |--④-|
③口口口 |--⑤-|
6
①①②口 |--①-|
口口②口 |②---|
口②口口 |----|
口②①① |----|
7
④口口口 |----|
①②③⑤ |--①②|
⑥口口口 |③-④-|
口口口口 |⑤-⑥-|
8
口口②口 |①---|
②③口口 |--②-|
口口口③ |----|
口①口① |③---|
9
口①口口 |----|
③口①① |①---|
②②③口 |②---|
口③②口 |③---|
10
口③②③ |①---|
口①口口 |--②-|
口口口口 |----|
②口口① |③---|
11
①口④口 |--①-|
⑦口口③ |②-③-|
口口口⑥ |④-⑤-|
⑤口②口 |⑥-⑦-|
12
③①口① |①---|
口口③③ |--②-|
②口②口 |----|
口口口口 |③---|
13
③口①③ |----|
口②③口 |①---|
口①口② |②---|
①②口口 |③---|
14
口①口口 |①---|
①口②① |----|
口口口口 |----|
②口口② |②---|
15
口②②口 |①---|
②口口② |----|
①口口① |②---|
口①口口 |----|
16
口⑧口口 |①-②-|
⑥①⑦口 |③-④-|
口③②④ |⑤-⑥-|
口口⑤口 |⑦-⑧-|
17
③口口① |①-②-|
口⑤口② |③-④-|
口⑧⑥④ |⑤-⑥-|
口口口⑦ |⑦-⑧-|
18
⑧①⑤口 |①-②-|
③⑥②④ |③-④-|
口口口⑦ |⑤-⑥-|
口口口口 |⑦-⑧-|
19
口⑤⑦⑥ |①-②-|
口口口口 |③-④-|
③⑧①口 |⑤-⑥-|
口口④② |⑦-⑧-|
20
②口口口 |①---|
口口②① |----|
②口口口 |②---|
①口口口 |----|
21
口口②口 |----|
②①③口 |①---|
口③②③ |②---|
①口①口 |③---|
22
口①口① |①---|
口②口② |--②-|
口③口③ |----|
口口口口 |③---|
23
⑤口口⑩ |①②③④|
①⑦②⑥ |⑤---|
口口口口 |⑥⑦⑧⑨|
③⑨④⑧ |⑩---|
24
口②①口 |①---|
②口②口 |----|
①口口口 |②---|
口口口口 |----|
25
口口③口 |----|
口口口① |①---|
②口口③ |②---|
口②口① |③---|
26
口③口口 |①---|
口①口口 |--②-|
口③②口 |----|
①口口② |③---|
27
⑤口口⑩ |①②③④|
①⑦②⑥ |⑤---|
口口口口 |⑥⑦⑧⑨|
③⑨④⑧ |⑩---|
28
口①口口 |①---|
①口①口 |----|
口①②口 |②---|
口口口口 |----|
29
口口①口 |①---|
口②口口 |----|
①口口口 |②---|
口②口② |----|
30
口①②① |①---|
②②①口 |----|
①口口② |②---|
②口口口 |----|
31
口②口口 |①---|
②口①① |----|
①口①② |②---|
口①②① |----|
32
④口③⑤ |①---|
口②④① |②-③-|
④口②口 |④-⑤-|
①③口⑥ |--⑥-|
33
口口③口 |--①-|
③②④① |②---|
口④③④ |③---|
②口②口 |④---|
34
口①口① |①-②-|
口③口③ |--③-|
口⑤④⑤ |--④-|
口②口口 |⑤---|
35
⑤口口⑩ |①②③④|
①⑦②⑥ |⑤---|
口口口口 |⑥⑦⑧⑨|
③⑨④⑧ |⑩---|
36
口④①口 |①---|
④⑤④口 |②-③-|
①②⑥③ |④-⑤-|
③口②口 |--⑥-|
37
①口④口 |--①-|
口口⑤② |②---|
③口口④ |③---|
口③口② |④-⑤-|
38
口⑤口④ |①-②-|
口①口口 |--③-|
口⑤③口 |--④-|
①口②③ |⑤---|
39
⑤口口⑩ |①②③④|
①⑦②⑥ |⑤---|
口口口口 |⑥⑦⑧⑨|
③⑨④⑧ |⑩---|
40
口①口口 |①---|
①口①口 |----|
口①口② |②---|
口口②口 |----|
41
口口口② |①---|
口口②① |----|
口②①口 |②---|
②①口口 |----|
42
①①①口 |①---|
口口口口 |----|
口口口口 |②---|
口②②② |----|
43
口①②③ |①---|
口口口口 |--②-|
①②③口 |----|
口口口口 |③---|
44
口③③口 |①---|
口①①口 |--②-|
口口口口 |----|
②口口② |③---|
45
②口口② |--①-|
口②②口 |----|
②口口② |②---|
口①①口 |----|
46
口①②口 |----|
①口口② |①---|
口③口口 |②---|
③口口口 |③---|
47
口②口口 |①---|
③口口口 |----|
口④①口 |--②-|
口口口① |③-④-|
48
口⑤④口 |①-②-|
口②①口 |③---|
口口⑤④ |④---|
③口口口 |--⑤-|
49
①口口口 |----|
②④口③ |①---|
口①口口 |②---|
口⑥口⑤ |③④⑤⑥|
50
口口口① |①---|
口口②口 |----|
口③口口 |--②-|
④口口口 |③-④-|
51
口⑤④口 |①-②-|
①③口口 |③---|
口口⑤④ |④---|
口口②口 |--⑤-|
52
①口口⑥ |----|
口③⑦② |①---|
口①⑧口 |②③④⑤|
口⑤口④ |⑥-⑦⑧|
53
口⑦④⑦ |①-②-|
④口口⑤ |③-④-|
③⑥口② |⑤-⑥-|
①⑧①口 |⑦-⑧-|
54
③口⑤口 |①-②-|
⑤⑦③口 |③-④-|
⑧口⑥⑦ |⑤-⑥-|
④口②① |⑦-⑧-|
55
⑦④⑦口 |①-②-|
口口口④ |③-④-|
口③口⑧ |⑤-⑥-|
⑤①⑥② |⑦-⑧-|
56
⑦⑤⑦③ |①-②-|
口③④⑤ |③-④-|
口⑥②⑧ |⑤-⑥-|
口①口口 |⑦-⑧-|
57
口口口口 |①-②-|
口⑤⑦⑥ |③-④-|
⑦⑧④口 |⑤-⑥-|
①③①② |⑦-⑧-|
58
口⑦口① |①-②-|
①⑥口⑦ |③-④-|
口⑧④② |⑤-⑥-|
④③口⑤ |⑦-⑧-|
59
④口①④ |①-②-|
⑦口⑦口 |③-④-|
①口⑤② |⑤-⑥-|
⑥口③⑧ |⑦-⑧-|
60
口①③④ |①-②-|
口口口① |③-④-|
口口口口
口②口口

口口口口
⑨⑩⑪⑫
⑤⑥⑦⑧ |⑤⑥⑦⑧|
口口口口 |⑨⑩⑪⑫|
61
①口口口 |①---|
口口口口 |----|
口③口口 |--②-|
②口④口 |③-④-|
62
②口②口 |①---|
口口④③ |②---|
②④口① |③---|
口③口③ |④---|
63
口③②口 |①---|
口②口口 |--②-|
口③口② |----|
①口①口 |③---|
64
⑤口口⑩ |①②③④|
①⑦②⑥ |⑤---|
口口口口 |⑥⑦⑧⑨|
③⑨④⑧ |⑩---|
65
口①①口 |①---|
口口②口 |----|
①③④① |--②-|
口口口口 |③-④-|
66
口口②口 |①---|
③①口口 |②---|
口④口② |③---|
口③口④ |④---|
67
②口③口 |①---|
口①①③ |--②-|
口③②口 |----|
①口②口 |③---|
68
口口口口 |--①-|
口①口口 |----|
②口口② |②---|
①口②① |----|
69
①②③④ |①②③④|
⑤⑥⑦⑧ |⑤⑥⑦⑧|
⑨⑩⑪⑫ |⑨⑩⑪⑫|
⑬⑭⑮⑯ |⑬⑭⑮⑯|
70
①①口口 |①---|
口②口口 |----|
口②口口 |②---|
口口口口 |----|
71
口口①口 |①---|
口口①① |----|
口口①① |②---|
②口①② |----|
72
口①②⑥ |①---|
①口口② |②-③-|
口口口③ |--④-|
④口③⑤ |⑤-⑥-|
73
⑨口④口 |①-②-|
⑤①⑥④ |③-④-|
③⑩②口 |⑤⑥⑦⑧|
⑦口⑧口 |⑨-⑩-|
74
口⑤④① |①-②-|
口②口口 |--③-|
③⑤③① |--④-|
口②口口 |--⑤-|
75
⑤口口⑩ |①②③④|
①⑦②⑥ |⑤---|
口口口口 |⑥⑦⑧⑨|
③⑨④⑧ |⑩---|
76
③①①⑥ |①---|
⑤口③⑥ |②-③-|
①②④① |--④-|
⑤口口④ |⑤-⑥-|
77
口③③口 |①---|
口口口口 |②-③-|
①⑤⑥④ |--④-|
口①②口 |⑤-⑥-|
78
⑤口口⑩ |①②③④|
①⑦②⑥ |⑤---|
口口口口 |⑥⑦⑧⑨|
③⑨④⑧ |⑩---|
79
⑤⑥口⑩ |①②③④|
①⑦②⑪ |⑤---|
口⑧口⑫ |⑥⑦⑧⑨|
③⑨④⑬ |⑩⑪⑫⑬|
80
口口③口 |①---|
①④①⑤ |②-③-|
④⑥②口 |--④-|
③⑥⑤口 |⑤-⑥-|
81
③①口④ |①-②-|
⑤口②口 |③-④-|
口口④⑥ |--⑤-|
⑦口口口 |⑥-⑦-|
82
口⑤③口 |①-②-|
口④口② |--③-|
⑤③④⑤ |--④-|
口口口① |--⑤-|
83
⑤口口⑩ |①②③④|
①⑦②⑥ |⑤---|
口口口口 |⑥⑦⑧⑨|
③⑨④⑧ |⑩---|
84
口①①口 |①---|
②口②③ |--②-|
口口①口 |----|
②③口③ |③---|
85
口①口① |①---|
③口②口 |--②-|
①③口② |----|
②口③口 |③---|
86
②口口口 |①---|
口口③① |----|
口口①口 |----|
口①口口 |②-③-|
87
口口口⑪ |①-②③|
⑥③⑪② |④-⑤-|
⑩⑨⑧⑦ |⑥-⑦⑧|
①⑤④口 |⑨⑩⑪-|
88
①口口口 |--①-|
口①口口 |----|
⑨⑧⑦⑥ |②③④⑤|
⑤④③② |⑥⑦⑧⑨|
89
口口口⑤ |①②③④|
④③②① |⑤---|
口口口口 |----|
口口口口 |----|
90
①口口⑧ |①-②③|
⑨口口② |④-⑤-|
⑥⑩③⑦ |⑥-⑦-|
口④口⑤ |⑧-⑨⑩|
91
⑥口④口 |①-②-|
口⑦口③ |③-④-|
⑨口⑧口 |⑤-⑥⑦|
②口①⑤ |⑧-⑨-|
92
口①口② |①-②③|
⑦口③⑨ |④-⑤-|
口④⑩⑤ |⑥-⑦-|
⑥口口⑧ |⑧-⑨⑩|
93
④口口⑤ |①-②-|
口口③口 |③-④-|
②口口口 |⑤---|
口①口口 |----|
94
⑤⑨⑥⑩ |①-②-③-|
口①口② |④-⑤-⑥-|
⑦⑪⑧⑫ |⑦-⑧-⑨-|
口③口④ |⑩-⑪-⑫-|
95
⑨口⑩口 |①-②-③-|
①⑤②⑥ |④-⑤-⑥-|
⑪口⑫口 |⑦-⑧-⑨-|
③⑦④⑧ |⑩-⑪-⑫-|
96
口①口② |①-②-③-|
⑤⑨⑥⑩ |④-⑤-⑥-|
口③口④ |⑦-⑧-⑨-|
⑦⑪⑧⑫ |⑩-⑪-⑫-|
97
①⑤②⑥ |①-②-③-|
⑨口⑩口 |④-⑤-⑥-|
③⑦④⑧ |⑦-⑧-⑨-|
⑪口⑫口 |⑩-⑪-⑫-|
98
②⑤②⑤ |①-②-|
口①口① |--③-|
口④口④ |--④-|
口③口③ |--⑤-|
99
⑦⑧⑥口 |--①-|
①口口⑤ |②-③-|
口口④口 |④-⑤-|
②口③口 |⑥-⑦⑧|
100
口口口⑦ |①②③-|
口①⑤口 |④-⑤-|
⑥②⑧口 |⑥-⑦-|
口③口④ |⑧---|
101
①口口口 |①---|
口③口口 |②---|
口口口口 |③---|
②④口口 |④---|
102
口口口口 |①---|
口口①口 |②---|
口口口③ |③---|
口口②④ |④---|
103
口口口① |①---|
口②口口 |②---|
口口③口 |③---|
④口口口 |④---|
104
①口口口 |①---|
口口②口 |②---|
口③口口 |③---|
口口口④ |④---|

不確定度: 0

最終更新:2017年07月30日 19:09