Good bye, Summer~さよならは言わない~
私立BEMANI学園軽音部 OB

BASIC

Level: 3
BPM: 165
Notes: 202

1
口口口口 |----|
口口口口 |----|
口口口口 |----|
口口口口 |----|
2
口口口口 |----|
口口口口 |----|
口口口口 |----|
口口口口 |----|
3
口口口口 |----|
口口口口 |----|
口口口口 |----|
口口口口 |----|
4
口口口口 |①---|
口口口口 |----|
口口口口 |----|
口①①口 |----|
5
口口口口 |----|
口口口口 |----|
口口口口 |----|
口口口口 |----|
6
口口口口 |①---|
口口口口 |----|
口①①口 |----|
口口口口 |----|
7
口口口口 |----|
口口口口 |----|
口口口口 |----|
口口口口 |----|
8
口口口口 |①---|
口①①口 |----|
口口口口 |----|
口口口口 |----|
9
口口口口 |①---|
①口口① |----|
口口口口 |----|
口口口口 |----|
10
口口口口 |①---|
口①①口 |----|
口口口口 |----|
口口口口 |----|
11
口口口口 |①---|
口口口口 |----|
口①①口 |----|
口口口口 |----|
12
口口口口 |①---|
口口②① |----|
口口口口 |②---|
口口口口 |----|
13
口口口口 |①---|
②①口口 |----|
口口口口 |②---|
口口口口 |----|
14
口口口口 |①---|
口口口口 |----|
①②口口 |②---|
口口口口 |----|
15
口口口口 |①---|
口口口口 |----|
口口①② |②---|
口口口口 |----|
16
口口口口 |①---|
口口口口 |----|
口口口口 |②---|
口口②① |----|
17
口口口口 |①---|
口口口口 |----|
口口口口 |②---|
②①口口 |----|
18
口口口口 |①---|
口口口口 |----|
①②口口 |②---|
口口口口 |----|
19
口口口口 |①---|
口口口口 |----|
口口①② |②---|
口口口口 |----|
20
口口口口 |①---|
口口口口 |----|
口口口口 |----|
口①①口 |----|
21
口口口口 |①---|
口口口口 |----|
口口②① |②---|
口口口口 |----|
22
口口口口 |①---|
口口口口 |----|
②①口口 |②---|
口口口口 |----|
23
口口口口 |①---|
①②口口 |----|
口口口口 |②---|
口口口口 |----|
24
①口口① |①---|
②口口② |----|
口口口口 |②---|
口口口口 |----|
25
口口口口 |①---|
口口口口 |----|
①口口① |②---|
②口口② |----|
26
口口口口 |①---|
口②②口 |----|
口①①口 |②---|
口口口口 |----|
27
口口口口 |①---|
①口口① |----|
②口口② |②---|
口口口口 |----|
28
口口口口 |①---|
口口口口 |----|
口①①口 |----|
口口口口 |----|
29
口口口口 |①---|
口口口口 |----|
①②口口 |②---|
口口口口 |----|
30
口口口口 |①---|
口口口口 |----|
口口①② |②---|
口口口口 |----|
31
口口口口 |①---|
口口②① |----|
口口口口 |②---|
口口口口 |----|
32
①口口① |①---|
②口口② |----|
口口口口 |②---|
口口口口 |----|
33
口口口口 |①---|
口口口口 |----|
①口口① |②---|
②口口② |----|
34
口口口口 |①---|
口②②口 |----|
口①①口 |②---|
口口口口 |----|
35
口口口口 |①---|
①口口① |----|
②口口② |②---|
口口口口 |----|
36
口口口口 |①---|
口口口口 |----|
口①①口 |----|
口口口口 |----|
37
口口口口 |①---|
口口①口 |----|
口②口口 |②---|
口口口口 |----|
38
口口口口 |①---|
口口口口 |----|
口②②口 |②---|
口①①口 |----|
39
口口口口 |①---|
②口口② |----|
①口口① |②---|
口口口口 |----|
40
口口口口 |①---|
口口②口 |----|
口口①口 |②---|
口口口口 |----|
41
口口口口 |①---|
口②口口 |----|
口①口口 |②---|
口口口口 |----|
42
②②①① |①---|
口口口口 |----|
口口口口 |②---|
口口口口 |----|
43
口口口口 |①---|
②②①① |----|
口口口口 |②---|
口口口口 |----|
44
口口口口 |----|
口②②口 |①---|
③①①③ |②---|
口口口口 |--③-|
45
③③③③ |----|
①口口① |--①-|
口②②口 |--②-|
口口口口 |--③-|
46
口口口口 |----|
口①①口 |----|
口口口口 |①---|
口口口口 |----|
47
口口口口 |①---|
口口口口 |----|
口①①口 |②---|
口口③② |③---|
48
口口口口 |①---|
口口口口 |②---|
口口口口 |----|
②①口口 |----|
49
口口口口 |----|
口口口口 |----|
①口口口 |----|
口口口口 |①---|
50
口口口口 |①---|
口口口④ |②---|
口①②③ |③---|
口口口口 |④---|
51
口口口口 |①---|
③②①口 |②---|
口口口口 |③---|
口口口口 |----|
52
口口口口 |①---|
口口口口 |②---|
口②①口 |③---|
口④③口 |④---|
53
③③③③ |①---|
口口口口 |----|
①②②① |--②-|
口口口口 |--③-|
54
口口口口 |----|
口①①口 |----|
口口口口 |①---|
口口口口 |----|
55
口口口口 |①---|
口口口口 |②---|
④③②① |③---|
口口口口 |④---|
56
口口口口 |①---|
口①①口 |----|
口②②口 |②---|
口口口口 |----|
57
口口口口 |----|
口口口口 |----|
口口口① |----|
口口口口 |①---|
58
口口口口 |①---|
口口口口 |②---|
口口口口 |③---|
④③②① |④---|
59
口口口口 |①---|
③口口③ |----|
②①①② |②---|
口口口口 |③---|
60
①口口① |①---|
口②②口 |--②-|
口口口口 |----|
口口口口 |----|
61
口口口口 |----|
①口口口 |----|
口口口口 |----|
口口口口 |①---|
62
口口口口 |①---|
口口口口 |②---|
①②③④ |③---|
口口口口 |④---|
63
口口口口 |①---|
③①①③ |----|
②口口② |②---|
口口口口 |③---|
64
①口口① |①---|
口②②口 |--②-|
口口口口 |----|
口口口口 |----|
65
口口口口 |----|
口口口口 |----|
口口口口 |----|
口口口口 |----|
66
口口口口 |①---|
口口口① |----|
口口②口 |②---|
口口口口 |----|
67
口口口口 |①---|
口口口口 |----|
②口口口 |②---|
口①口口 |----|
68
口口口口 |①---|
①口口口 |----|
口②口口 |②---|
口口口口 |----|
69
口口口口 |①---|
口口口口 |----|
口口口② |②---|
口口①口 |----|
70
口口口口 |①---|
口②①口 |----|
口口口口 |②---|
口口口口 |----|
71
口口口口 |①---|
口口口口 |----|
口②①口 |②---|
口口口口 |----|
72
口口口口 |①---|
口口口口 |----|
②②口口 |----|
口口①① |--②-|
73
口①①口 |----|
口①①口 |--①-|
口口口口 |----|
口口口口 |----|

不確定度: 0

最終更新:2017年07月30日 19:09