Good bye, Summer~さよならは言わない~
私立BEMANI学園軽音部 OB

ADVANCED

Level: 7
BPM: 165
Notes: 397

1
口口口口 |----|
口口口口 |----|
口口口口 |----|
口口口口 |----|
2
口口口口 |----|
口口口口 |----|
口口口口 |----|
口口口口 |----|
3
口口口口 |----|
口口口口 |----|
口口口口 |----|
口口口口 |----|
4
口口口① |①-②-|
⑤口②口 |③-④-|
口③⑥口 |----|
④口口口 |⑤-⑥-|
5
口口②口 |--①-|
口口①口 |--②-|
③口口口 |----|
口口口口 |③---|
6
①口口口 |①-②-|
口②口⑤ |③-④-|
口⑥③口 |----|
口口口④ |⑤-⑥-|
7
口②口口 |--①-|
口①口口 |--②-|
口口口③ |----|
口口口口 |③---|
8
口口①① |①-②-|
②②③③ |③-④-|
④④口口 |----|
口口口口 |----|
9
①①口口 |①-②-|
③③②② |③-④-|
口口④④ |----|
口口口口 |----|
10
口④④口 |①-②-|
口③③口 |③-④-|
口②②口
口①①口

口口口⑤
⑥口口口
口⑦⑦口 |--⑤-|
口口口口 |⑥-⑦-|
11
口口口口 |----|
口口口口 |----|
口口口口 |----|
口口口口 |----|
12
口⑥①口 |①-②-|
口②口⑤ |③-④-|
口口③口 |----|
口④口口 |⑤-⑥-|
13
口口③口 |--①-|
口①口口 |--②-|
口②口口 |----|
口口口口 |③---|
14
口①⑥口 |①-②-|
⑤口②口 |③-④-|
口③口口 |----|
口口④口 |⑤-⑥-|
15
口③口口 |--①-|
口口①口 |--②-|
口口②口 |----|
口口口口 |③---|
16
口口⑥① |①-②-|
口②口口 |③-④-|
口口⑤③ |--⑤-|
口④口口 |⑥---|
17
①⑥口口 |①-②-|
口口②口 |③-④-|
③⑤口口 |--⑤-|
口口④口 |⑥---|
18
口⑤①口 |①-②-|
②口⑥口 |③-④-|
口⑦③口 |--⑤-|
④口口口 |⑥-⑦-|
19
口口口口 |----|
口口口口 |----|
口口口口 |----|
口口口口 |----|
20
口口口口 |①---|
口口③口 |----|
口④口② |--②-|
口①①口 |③-④-|
21
口口②口 |①-②-|
①④口口 |--③-|
口口③口 |----|
口口口口 |--④-|
22
口口①口 |①---|
口口②口 |②---|
口③口⑤ |③-④-|
口口④口 |--⑤-|
23
口①⑤⑤ |--①-|
口③②口 |②-③-|
口口④④ |----|
口口口口 |④-⑤-|
24
②②口口 |--①-|
口③③口 |②---|
①①口口 |③---|
④口口④ |--④-|
25
口口口口 |--①-|
②口口② |②---|
口①①口 |③---|
口③③口 |----|
26
口口口③ |①---|
④②①口 |②---|
口③口口 |③---|
①口④② |--④-|
27
③口口③ |--①-|
口②口口 |②---|
④口①④ |③---|
口口口口 |④---|
28
口口口口 |①---|
口③口口 |----|
②口④口 |--②-|
口①①口 |③-④-|
29
口②口口 |①-②-|
口口③① |③-④-|
口④⑤口 |----|
口口口口 |--⑤-|
30
口①口口 |①---|
口②口口 |②---|
⑤口口③ |③-④-|
口④口口 |--⑤-|
31
口口②口 |--①-|
③口口① |--②-|
口口口口 |--③-|
口口④④ |--④-|
32
口口②② |--①-|
口③③口 |②---|
①①口口 |③---|
④口口④ |--④-|
33
口口口口 |--①-|
②口口② |②---|
口①①口 |③---|
口③③口 |----|
34
③口口口 |①---|
口①②④ |②---|
口口③口 |③---|
②④口① |--④-|
35
③口口③ |--①-|
口口②口 |②---|
④①口④ |③---|
口口口口 |④---|
36
口口口口 |①---|
口②口口 |----|
口④③口 |--②-|
口①①口 |③-④-|
37
口口口口 |①-②-|
口③口口 |--③-|
口口④口 |----|
口②①口 |--④-|
38
⑤①③⑤ |①---|
①口口③ |②---|
口④④② |③---|
口口②口 |④-⑤-|
39
口口③⑤ |--①-|
口口口口 |--②-|
①口④① |③--④|
口②②口 |--⑤-|
40
口③②口 |①---|
④①口口 |--②-|
口口口口 |③---|
口口口口 |--④-|
41
口口口口 |①---|
口口口口 |--②-|
①③②口 |③---|
口口口口 |----|
42
口口口口 |①---|
①⑥⑤② |②---|
口④③口 |③-④-|
①②①② |⑤-⑥-|
43
②口①口 |①---|
口口口③ |----|
④口口口 |②-③-|
口口口⑤ |④-⑤-|
44
口口口口 |--①-|
口②①口 |②---|
口①②口
口口口口

④口口③
口口⑤口
口⑤口口 |③---|
③口口④ |④-⑤-|
45
口③③⑤ |--①-|
口①⑤口 |②-③-|
口⑤②口 |--④-|
⑤④④口 |--⑤-|
46
口口口口 |----|
口口口口 |----|
口③②口 |--①-|
口口口① |②-③-|
47
口口②② |①---|
①口口口 |----|
口口口口 |②---|
③③口口 |③---|
48
口口口口 |①---|
②口口口 |②-③-|
口③口口 |----|
口口口① |----|
49
口口口口 |----|
口口口口 |----|
口②口口 |----|
①口口口 |①-②-|
50
④③④③ |①---|
口口②口 |②-③-|
口⑤①⑤ |--④-|
口口口口 |--⑤-|
51
①口口① |----|
口①①口 |--①-|
口口口口 |----|
②口口口 |--②-|
52
口口③③ |①---|
④④口口 |②-③-|
口②⑤⑤ |--④-|
口口口① |--⑤-|
53
⑥口口口 |①-②-|
口⑥③④ |③-④-|
①②⑥口 |--⑤-|
⑤口口⑥ |--⑥-|
54
口口口① |----|
口口②口 |----|
口③口口 |--①-|
口口口口 |②-③-|
55
①口口口 |①-②-|
口②口口 |③-④-|
口口③口
口口口④

⑦⑦⑤⑤
口口口口
⑥⑥口口 |⑤--⑥|
口口口口 |--⑦-|
56
口口③口 |①-②-|
口④口① |③-④-|
口口②口 |----|
口口口口 |----|
57
口口口口 |----|
②口口口 |----|
①口口口 |----|
口口口口 |①-②-|
58
①③口口 |①---|
口口口② |②-③-|
口口口④ |--④-|
⑤口口口 |--⑤-|
59
口①②口 |----|
①口口② |----|
②口口① |①---|
口②①口 |②---|
60
③口口③ |①-②-|
口①①口 |--③-|
口②②口 |----|
口口口口 |----|
61
口口口口 |----|
口口口口 |----|
口口②口 |----|
口口口① |①-②-|
62
⑤⑤④④ |①---|
口③②口 |②-③-|
口①口口 |--④-|
口口口口 |--⑤-|
63
口②①口 |----|
②口口① |----|
①口口② |①---|
口①②口 |②---|
64
③口口③ |①-②-|
口①①口 |--③-|
口②②口 |----|
口口口口 |----|
65
口口口口 |----|
口口口口 |----|
口口口口 |----|
口口口口 |----|
66
口⑥①口 |①-②-|
口②口⑤ |③-④-|
口口③口 |----|
口④口口 |⑤-⑥-|
67
口口口口 |--①-|
口①口口 |--②-|
口②口③ |----|
口口口口 |③---|
68
⑥④⑥④ |①-②-|
口口③口 |③-④-|
口⑤②⑤ |--⑤-|
口口①口 |⑥---|
69
⑥口⑥口 |①-②-|
④①④口 |③-④-|
口⑤②⑤ |--⑤-|
口③口口 |⑥---|
70
口①口① |①---|
口⑤②⑤ |----|
口③口口 |②-③-|
口口④口 |④-⑤-|
71
口口口口 |----|
口口口口 |----|
口口口口 |----|
口口口口 |----|
72
口口①口 |①-②-|
⑤②口口 |③-④-|
口⑥③口 |--⑤-|
口④口口 |--⑥-|
73
口②②口 |--①-|
②口口② |--②-|
口口①口 |----|
口口口口 |----|

不確定度: 0

最終更新:2017年07月30日 19:09