Good bye, Summer~さよならは言わない~
私立BEMANI学園軽音部 OB

EXTREME

Level: 9
BPM: 165
Notes: 642

1
口口口口 |----|
口口口口 |----|
口口口口 |----|
口口口口 |----|
2
口口①口 |①---|
口②口口 |----|
口口口口 |②---|
口口口口 |----|
3
③口口口 |①---|
②口口口 |②---|
①口口口 |③---|
口口口口 |----|
4
口①①① |①-②-|
口口口② |③-④-|
口口③口
口口④口

⑤口⑦口
口口口口
口⑥口口 |--⑤-|
口口口口 |⑥-⑦-|
5
口口口口 |--①-|
口①口口 |--②-|
口口口② |----|
③③口口 |③---|
6
⑤口⑦① |①-②-|
口口口② |③-④-|
口⑥③口 |--⑤-|
口口④口 |⑥-⑦-|
7
口口口口 |--①-|
口①口口 |--②-|
口口口② |----|
③③口口 |③---|
8
⑥口口① |①-②-|
①②口② |③-④-|
③④③口 |--⑤-|
口⑤④口 |⑥---|
9
⑥口①口 |①-②-|
①②②口 |③-④-|
③④口③ |--⑤-|
口⑤口④ |⑥---|
10
口口口① |①-②-|
①②口② |③-④-|
③④③口
口口④口

口口口⑥
口口⑤口
口口口⑦ |--⑤-|
⑦⑦口口 |⑥-⑦-|
11
⑨②②口 |--①-|
③口口① |②-③-|
口⑤④⑧ |④⑤⑥⑦|
口⑦⑥口 |⑧-⑨-|
12
⑤④口② |①-②-|
④口⑥② |③-④-|
口⑥⑤口 |----|
①口口③ |⑤-⑥-|
13
④口④① |--①-|
口口口口 |--②-|
④口③② |③---|
①口②口 |④---|
14
口④口② |①-②-|
④口②口 |③-④-|
口口口口
口①③口

⑤口口口
口口⑥口
口⑥⑤口 |----|
口口口口 |⑤-⑥-|
15
④口④① |--①-|
口口口口 |--②-|
④口③② |③---|
①口②口 |④---|
16
口⑥口⑥ |①-②-|
①口③口 |③-④-|
口②口④ |--⑤-|
⑤口⑤口 |⑥---|
17
⑥口⑥口 |①-②-|
口③口① |③-④-|
④口②口 |--⑤-|
口⑤口⑤ |⑥---|
18
⑤口口⑤ |①-②-|
①口③口 |③-④-|
口②口④ |--⑤-|
⑥⑦⑦⑥ |⑥-⑦-|
19
⑨②②⑧ |--①-|
③口口① |②-③-|
口⑤④口 |④⑤⑥⑦|
口⑦⑥口 |⑧-⑨-|
20
口口②口 |①---|
③①①口 |----|
口口④口 |--②-|
口口口口 |③-④-|
21
口①口口 |①-②-|
口口③② |--③-|
口口口口
口口②③

口④口口
口口口口
口口口口 |----|
口口口口 |--④-|
22
口口口口 |①---|
口口口① |②---|
口口②口
口口口口

④口口⑤
④口口⑤
口口口口 |③-④-|
口口③口 |--⑤-|
23
口口①口 |--①-|
④②口⑤ |②-③-|
口口③口 |----|
④口口⑤ |④-⑤-|
24
②口口② |--①-|
口口口口 |②---|
口口口口
口①①口

口口口口
口③③口
口口口口 |③---|
口④口④ |--④-|
25
口③③③ |--①-|
口口口口 |②---|
口①②① |③---|
口口口口 |----|
26
口口口口 |①---|
②口口① |②---|
口口口口
①口口②

口③③口
口口口口
口口口口 |③---|
④口④口 |--④-|
27
③③③口 |--①-|
口口口口 |②---|
①②①口 |③---|
④④口口 |④---|
28
口口②口 |①---|
③口口口 |----|
口口④口 |--②-|
口口①① |③-④-|
29
口①口口 |①-②-|
口口③② |--③-|
口口口口
口口②③

口④口口
口口口口
口口口口 |----|
口口口口 |--④-|
30
口④口口 |①---|
④口口① |②---|
⑤口②口 |③-④-|
口⑤③口 |--⑤-|
31
口口③口 |--①-|
口①②③ |--②-|
口②①④ |--③-|
口口④口 |--④-|
32
①②口口 |--①-|
口③③口 |②---|
②①口口 |③---|
口④口④ |--④-|
33
口③③③ |--①-|
口口口口 |②---|
口①②① |③---|
口口口口 |----|
34
口口口口 |①---|
②口口① |②---|
口口口口
①口口②

口③③口
口口口口
口口口口 |③---|
④口④口 |--④-|
35
③③③口 |--①-|
口口口口 |②---|
①②①口 |③---|
④④口口 |④---|
36
口口②口 |①---|
③口口口 |----|
口口④口 |--②-|
口口①① |③-④-|
37
口①口口 |①-②-|
口口③② |--③-|
口口口口
口口②③

口口口口
口口口口
口口口口 |----|
口④④口 |--④-|
38
口口口① |①---|
②①口③ |②---|
④③②口 |③---|
口⑤④⑤ |④-⑤-|
39
口①③① |--①-|
口②①③ |--②-|
口④②口 |③--④|
④口⑤⑤ |--⑤-|
40
①口口② |①---|
①口口口 |--②-|
口口②口
口口口口

④口③口
口口口口
口④口③ |③---|
口口口口 |--④-|
41
口①口口 |①---|
口③②口 |--②-|
①口口口 |③---|
口②③口 |----|
42
①③口② |①---|
③口④口 |②---|
⑥④口⑤ |③-④-|
②⑥⑤① |⑤-⑥-|
43
口口①② |①---|
口口口① |②---|
口口口口
②口口口

③口⑥口
④⑥口⑥
⑤口⑥口 |③-④-|
口⑤④③ |⑤-⑥-|
44
③①④② |--①-|
口⑤③口 |②---|
④③⑤① |③---|
②口口⑤ |④-⑤-|
45
口①口口 |--①-|
①口②口 |②-③-|
口②口③
口口③口

口⑤⑤口
⑤口口④
⑤口④口 |--④-|
口④口口 |--⑤-|
46
②口口① |----|
口口④口 |①---|
③口⑤④ |②-③-|
口③⑤口 |④-⑤-|
47
②口①② |①---|
口①口口 |②---|
口口口口
口口口口

口口口口
③④③④
口口口口 |③---|
④③④③ |④---|
48
③③①① |①---|
口口⑤④ |②-③-|
②①口② |④-⑤-|
口②口② |----|
49
口口②口 |①---|
口口口③ |②-③-|
口口①①
口口口口

⑤⑤口⑤
口⑥口口
口口⑥口 |④---|
口口④④ |⑤-⑥-|
50
⑤④口④ |①---|
③口②口 |②-③-|
①③口④ |--④-|
②①③⑤ |--⑤-|
51
口④③口 |①---|
④口①③ |②-③-|
②口口口 |----|
①②口口 |--④-|
52
①⑤③③ |①---|
⑤①口口 |②-③-|
口②口④ |--④-|
口②④口 |--⑤-|
53
④口②口 |①-②-|
口③口① |③-④-|
④口②口
口③口①

口⑥⑥口
⑤口口⑥
口⑤口⑥ |--⑤-|
口口⑤口 |--⑥-|
54
②口口① |----|
④口⑤⑤ |①---|
口④口③ |②-③-|
口口口③ |④-⑤-|
55
④③②① |①-②-|
⑦⑤⑥⑦ |③-④-|
口⑥⑤口 |⑤--⑥|
①②③④ |--⑦-|
56
④④④④ |①-②-|
⑤口口⑤ |③-④-|
①口口① |----|
②③③② |⑤---|
57
口口口② |①---|
口口③口 |②-③-|
口口①①
口口口口

⑤口口口
⑤口口⑥
口口⑥口 |④---|
口口④④ |⑤-⑥-|
58
口③③口 |①---|
口口口口 |②-③-|
①口口②
口①②口

⑤口口口
口④口口
⑤口④口 |--④-|
口口口口 |--⑤-|
59
口③口① |①-②-|
口口②口 |③---|
口③口①
口口②口

口口⑤⑤
④④口口
口口⑤⑤ |④---|
④④口口 |⑤---|
60
①口口口 |①-②-|
③口②③ |--③-|
口②口口
口③③①

④口口④
口口口口
口口口口 |----|
口口口口 |④---|
61
口口口口 |①---|
口②口口 |②-③-|
口口③口
①口口①

口④④④
口口口口
口⑥口口 |④---|
⑤⑤⑤口 |⑤-⑥-|
62
①口②② |①---|
口口口口 |②-③-|
口口③口
口口口③

⑤口口口
⑤④口口
口口口口 |--④-|
④口口口 |--⑤-|
63
⑤③⑤① |①-②-|
口口②④ |③---|
⑤③④① |④---|
口④②口 |⑤---|
64
口口口② |①-②-|
③口②③ |--③-|
口口口①
口③③①

④口口口
口口⑤口
口⑤④口 |----|
口口口口 |④-⑤-|
65
④口④① |--①-|
口口口口 |--②-|
④口③② |③---|
①口②口 |④---|
66
口④口② |①-②-|
④口②口 |③-④-|
口口口口
口①③口

⑤口口口
口口⑥口
口⑥⑤口 |----|
口口口口 |⑤-⑥-|
67
④口④① |--①-|
口口口口 |--②-|
④口③② |③---|
①口②口 |④---|
68
口⑥口⑥ |①-②-|
①口③口 |③-④-|
口②口④ |--⑤-|
⑤口⑤口 |⑥---|
69
⑥口⑥口 |①-②-|
口③口① |③-④-|
④口②口 |--⑤-|
口⑤口⑤ |⑥---|
70
⑤口口⑤ |①-②-|
①口③口 |③-④-|
口②口④ |--⑤-|
⑥⑦⑦⑥ |⑥-⑦-|
71
口④④口 |①---|
①②②① |②---|
口③③口 |③---|
口口口口 |④---|
72
②口口① |①-②-|
口②①口 |③-④-|
口④③口
④口口③

口⑤⑤口
口⑥⑥口
口口口口 |--⑤-|
口口口口 |--⑥-|
73
②②②② |--①-|
②口口② |--②-|
口口口口 |----|
口①①口 |----|

不確定度: 0

最終更新:2017年07月30日 19:08