ロンロンへ ライライライ!
ここなつ

BASIC

Level: 3
BPM: 156
Notes: 300

1
口口口口 |----|
口口口口 |----|
口口口口 |----|
口口口口 |----|
2
口口口口 |①---|
口口口口 |----|
口口②① |②---|
口口口口 |----|
3
口口口口 |①---|
口口口口 |----|
②①口口 |②---|
口口口口 |----|
4
口口口口 |①---|
①②口口 |----|
口口口口 |②---|
口口口口 |----|
5
口口口口 |①---|
口口①② |----|
口口口口 |②---|
口口口口 |----|
6
口口口口 |①---|
口口口口 |----|
口口②① |②---|
口口口口 |----|
7
口口口口 |①---|
口口口口 |----|
②①口口 |②---|
口口口口 |----|
8
口口口口 |①---|
①②口口 |----|
口口口口 |②---|
口口口口 |----|
9
口口口口 |①---|
口口①② |----|
口口口口 |②---|
口口口口 |----|
10
口口口口 |----|
口口口口 |----|
口口口口 |----|
口口口口 |----|
11
④④④④ |①---|
口③③③ |②---|
口口②② |③---|
口口口① |④---|
12
口④④口 |①---|
口口口口 |②---|
③②①口 |③---|
口口口口 |④---|
13
口④④口 |①---|
口口口口 |②---|
口①②③ |③---|
口口口口 |④---|
14
口④④口 |①---|
口口口口 |②---|
③②①口 |③---|
口口口口 |④---|
15
①口口① |①---|
口口口口 |----|
②口口② |②---|
口口口口 |----|
16
口④④口 |①---|
口口口口 |②---|
③②①口 |③---|
口口口口 |④---|
17
口④④口 |①---|
口口口口 |②---|
口①②③ |③---|
口口口口 |④---|
18
口④④口 |①---|
口口口口 |②---|
③②①口 |③---|
口口口口 |④---|
19
①口口① |①---|
口口口口 |----|
②口口② |②---|
口口口口 |----|
20
口口口口 |①---|
口①口口 |----|
口②口口 |②---|
口口口口 |----|
21
口口口口 |①---|
口口口口 |----|
口口口口 |----|
口①口口 |----|
22
口口口口 |①---|
口口①口 |----|
口口②口 |②---|
口口口口 |----|
23
口口口口 |①---|
口②②口 |----|
口口口口 |②---|
口口①口 |----|
24
口口口口 |①---|
④③②① |②---|
口口口口 |③---|
口口口口 |④---|
25
口口口口 |①---|
口口口口 |②---|
①②③④ |③---|
口口口口 |④---|
26
口口口口 |①---|
口口口口 |②---|
口口口口 |③---|
④③②① |④---|
27
口③③口 |①---|
口②②口 |②---|
口①①口 |③---|
口口口口 |----|
28
口口口口 |①---|
①②③④ |②---|
口口口口 |③---|
口口口口 |④---|
29
口口口口 |①---|
口口口口 |②---|
④③②① |③---|
口口口口 |④---|
30
口口口口 |①---|
口口口口 |②---|
口口口口 |③---|
①②③④ |④---|
31
口③③口 |①---|
口②②口 |②---|
口①①口 |③---|
口口口口 |----|
32
口口口口 |①---|
④③②① |②---|
口口口口 |③---|
口口口口 |④---|
33
口口口口 |①---|
口口口口 |②---|
①②③④ |③---|
口口口口 |④---|
34
口口口口 |①---|
口口口口 |②---|
口口口口 |③---|
④③②① |④---|
35
④③③④ |①---|
口②②口 |②---|
口①①口 |③---|
口口口口 |④---|
36
口口口口 |①---|
①②③④ |②---|
口口口口 |③---|
口口口口 |④---|
37
口口口口 |①---|
口口口口 |②---|
④③②① |③---|
口口口口 |④---|
38
口口口口 |①---|
口口口口 |②---|
口口口口 |③---|
①②③④ |④---|
39
口③③口 |①---|
口②②口 |②---|
口①①口 |③---|
口口口口 |----|
40
口口口口 |①---|
口口②口 |----|
口口口① |②---|
口口口口 |----|
41
口口口口 |①---|
②口口口 |----|
口①口口 |②---|
口口口口 |----|
42
口口口口 |①---|
口②口口 |----|
①口口口 |②---|
口口口口 |----|
43
口口口口 |①---|
口口口② |----|
口口①口 |②---|
口口口口 |----|
44
口口口口 |①---|
口口②口 |----|
口口口① |②---|
口口口口 |----|
45
口口口口 |①---|
②口口口 |----|
口①口口 |②---|
口口口口 |----|
46
口口口口 |①---|
口②口口 |----|
①口口口 |②---|
口口口口 |----|
47
口口口口 |①---|
口口口② |----|
口口①口 |②---|
口口口口 |----|
48
口口①① |①---|
口口②② |----|
口口口口 |②---|
口口口口 |----|
49
口口口口 |①---|
口口口口 |----|
口口①① |----|
口口口口 |----|
50
①①口口 |①---|
②②口口 |----|
口口口口 |②---|
口口口口 |----|
51
②②②② |①---|
口口口口 |----|
①①口口 |----|
口口口口 |②---|
52
口口口口 |①---|
②口口① |②---|
④口口③ |③---|
口口口口 |④---|
53
口口口口 |①---|
口③③口 |②---|
口口口口 |③---|
②口口① |----|
54
口口口口 |①---|
口口口口 |②---|
②口口① |③---|
④口口③ |④---|
55
口口口口 |①---|
口③③口 |②---|
口②②口 |③---|
口①①口 |----|
56
口口口口 |①---|
②口口① |②---|
④口口③ |③---|
口口口口 |④---|
57
口口口口 |①---|
口③③口 |②---|
口口口口 |③---|
②口口① |----|
58
口口口口 |①---|
口口口口 |②---|
②口口① |③---|
④口口③ |④---|
59
口③③口 |①---|
口②②口 |②---|
口①①口 |③---|
口口口口 |----|
60
口口口口 |①---|
②口口① |②---|
④口口③ |③---|
口口口口 |④---|
61
口口口口 |①---|
口③③口 |②---|
口口口口 |③---|
②口口① |----|
62
口②①口 |①---|
口④③口 |②---|
口口口口 |③---|
口口口口 |④---|
63
口口口口 |①---|
口口口口 |②---|
口②①口 |③---|
口④③口 |④---|
64
①①①① |①---|
口②②口 |----|
口口口口 |----|
口口口口 |②---|
65
②口口② |----|
口口口口 |①---|
口①①口 |②---|
口口口口 |----|
66
口②①口 |①---|
口④③口 |②---|
口口口口 |③---|
口口口口 |④---|
67
口口口口 |①---|
口口口口 |②---|
口②①口 |③---|
口④③口 |④---|
68
口口口口 |①---|
②②②② |----|
①①①① |②---|
口口口口 |----|
69
①①①① |①---|
口口口口 |----|
口口口口 |----|
口口口口 |----|
70
口④④口 |①---|
口口口口 |②---|
③②①口 |③---|
口口口口 |④---|
71
口④④口 |①---|
口口口口 |②---|
口①②③ |③---|
口口口口 |④---|
72
口④④口 |①---|
口口口口 |②---|
③②①口 |③---|
口口口口 |④---|
73
①口口① |①---|
口口口口 |----|
②口口② |②---|
口口口口 |----|
74
口④④口 |①---|
口口口口 |②---|
③②①口 |③---|
口口口口 |④---|
75
口④④口 |①---|
口口口口 |②---|
口①②③ |③---|
口口口口 |④---|
76
口④④口 |①---|
口口口口 |②---|
③②①口 |③---|
口口口口 |④---|
77
①口口① |①---|
口口口口 |----|
②②②② |②---|
口口口口 |----|

不確定度: 0

最終更新:2017年07月30日 19:07