ロンロンへ ライライライ!
ここなつ

ADVANCED

Level: 7
BPM: 156
Notes: 498

1
口口口口 |----|
口口口口 |----|
口口口口 |----|
口口口口 |----|
2
口口①口 |①---|
口②口口 |②---|
口口③口 |③---|
口④口口 |④---|
3
口口口口 |①---|
口③③口 |②---|
口②口口 |③---|
口口①口 |----|
4
口口口① |①---|
口口口② |②---|
口口口③ |③---|
口④⑤口 |④-⑤-|
5
③口口口 |①---|
②口口口 |②---|
①口口口 |③---|
口口口口 |----|
6
口口口口 |①---|
③①①② |②-③-|
⑤口口④ |④-⑤-|
⑦口口⑥ |⑥-⑦-|
7
口口③口 |①---|
口口②口 |②---|
口口①口 |③---|
口口口口 |----|
8
口口口口 |①-②-|
口②①口 |--③-|
口④③口 |④---|
口⑥⑤口 |⑤-⑥-|
9
③口口③ |①---|
②口口② |②---|
①口口① |③---|
口口口口 |----|
10
口口口口 |----|
口口口口 |----|
口口口口 |----|
口口口口 |----|
11
④④④④ |①---|
口口口① |②---|
口口②② |③---|
口③③③ |④---|
12
⑦口口⑦ |①-②-|
口②①口 |③-④-|
口④③口 |⑤-⑥-|
口⑥⑤口 |⑦---|
13
⑦口口⑦ |①-②-|
口②①口 |③-④-|
口④③口 |⑤-⑥-|
口⑥⑤口 |⑦---|
14
⑦口口⑦ |①-②-|
口②①口 |③-④-|
口④③口 |⑤-⑥-|
口⑥⑤口 |⑦---|
15
④①①④ |①---|
口②②口 |②---|
口③③口 |③---|
口口口口 |④---|
16
口⑦⑦口 |①-②-|
②口口① |③-④-|
④口口③ |⑤-⑥-|
⑥口口⑤ |⑦---|
17
口⑦⑦口 |①-②-|
②口口① |③-④-|
④口口③ |⑤-⑥-|
⑥口口⑤ |⑦---|
18
口⑦⑦口 |①-②-|
②口口① |③-④-|
④口口③ |⑤-⑥-|
⑥口口⑤ |⑦---|
19
口口口口 |①--②|
④④①口 |--③-|
口②口口 |④---|
口口③口 |----|
20
口口口口 |①-②-|
⑥口口③ |③---|
口②⑤口 |④-⑤-|
④口口① |⑥---|
21
口口口口 |①-②-|
口口口③ |③---|
口②口口 |----|
口口口① |----|
22
口口口口 |①-②-|
⑥口口③ |③---|
口②⑤口 |④-⑤-|
④口口① |⑥---|
23
口口口口 |①--②|
④④①口 |--③-|
口②口口 |④---|
口口③口 |----|
24
口口口① |--①-|
口口②口 |②-③-|
口③口口 |④-⑤-|
④⑤⑥⑦ |⑥-⑦-|
25
⑤口口② |--①-|
④口口① |②---|
③口口口 |③-④-|
口口口口 |⑤---|
26
⑤口①⑥ |--①-|
口②口口 |②-③-|
口口③口 |④---|
口④④口 |⑤-⑥-|
27
口口口口 |①---|
口①①口 |②---|
口②②口 |③---|
口③③口 |----|
28
①口口口 |--①-|
口②口口 |②-③-|
口口③口 |④-⑤-|
⑦⑥⑤④ |⑥-⑦-|
29
口①①口 |--①-|
口口口口 |--②-|
口③②口 |③-④-|
口⑤④口 |⑤---|
30
口口口口 |--①-|
口⑤②口 |②---|
口④①口 |③---|
口③③口 |④-⑤-|
31
①③③② |①---|
口口口口 |②---|
②口口① |③---|
口口口口 |----|
32
口口口① |--①-|
口口②口 |②-③-|
口③口口 |④-⑤-|
④⑤⑥⑦ |⑥-⑦-|
33
口③口⑥ |--①-|
口②口⑤ |②-③-|
口①口④ |④-⑤-|
口口口口 |⑥---|
34
口口口⑦ |--①-|
⑥口口③ |②-③-|
②口口⑤ |④-⑤-|
④口口① |⑥-⑦-|
35
口口口口 |①---|
③①②④ |②---|
④②①③ |③---|
口口口口 |④---|
36
①口口口 |--①-|
口②口口 |②-③-|
口口③口 |④-⑤-|
⑦⑥⑤④ |⑥-⑦-|
37
⑥口③口 |--①-|
⑤口②口 |②-③-|
④口①口 |④-⑤-|
口口口口 |⑥---|
38
④④②② |①---|
口口口口 |②---|
③③①① |③---|
口口口口 |④---|
39
③③③③ |①---|
口口口口 |②---|
口②②口 |③---|
口①①口 |----|
40
口口口口 |----|
口口③口 |①---|
口②口口 |②---|
口口①口 |③---|
41
口①口口 |①---|
口口口口 |----|
口②口口 |②---|
口③口口 |③---|
42
口口口① |①---|
口口口② |②---|
口口口③ |③---|
口口口口 |----|
43
①口口口 |①---|
②口口口 |②---|
③口口口 |③---|
口口口口 |----|
44
口口口口 |----|
口③口口 |①---|
口口②口 |②---|
口①口口 |③---|
45
口口①口 |①---|
口口口口 |----|
口口②口 |②---|
口口③口 |③---|
46
①口口口 |①---|
②口口口 |②---|
③口口口 |③---|
口口口口 |----|
47
口④④① |①---|
口口口② |②---|
口口口③ |③---|
口口口口 |④---|
48
③口口⑥ |①-②-|
⑤③⑥② |③---|
①⑤②④ |④-⑤-|
口①④口 |⑥---|
49
③口口口 |①-②-|
口③口② |③---|
①口②口 |----|
口①口口 |----|
50
⑥口口③ |①-②-|
②⑥③⑤ |③---|
④②⑤① |④-⑤-|
口④①口 |⑥---|
51
⑤⑤⑤⑤ |①--②|
④④①口 |--③-|
口②口口 |④---|
口口③口 |⑤---|
52
口⑤口口 |①---|
口④口口 |②---|
①②①② |③---|
口③③口 |④-⑤-|
53
口口①② |①-②-|
口口口③ |③-④-|
口⑥⑤④ |⑤---|
口口口口 |--⑥-|
54
⑥④③⑤ |①-②-|
⑧②①⑦ |③-④-|
口口口口 |⑤-⑥-|
口口口口 |⑦-⑧-|
55
⑥⑤⑥⑤ |①-②-|
口口口口 |③-④-|
口③口① |⑤---|
④口②口 |⑥---|
56
口口⑤口 |①---|
口口④口 |②---|
②①②① |③---|
口③③口 |④-⑤-|
57
②①口口 |①-②-|
③口口口 |③-④-|
④⑤口口 |⑤---|
口⑦⑥口 |⑥-⑦-|
58
⑧口口⑦ |①-②-|
⑥口口⑤ |③-④-|
④口口③ |⑤-⑥-|
②口口① |⑦-⑧-|
59
④③④③ |①---|
口口口口 |②---|
口①①口 |③---|
口②②口 |④---|
60
口⑤口口 |①---|
口④口口 |②---|
①②①② |③---|
口③③口 |④-⑤-|
61
口口①② |①-②-|
口口口③ |③-④-|
口⑥⑤④ |⑤---|
口口口口 |--⑥-|
62
⑥④③⑤ |①-②-|
⑧②①⑦ |③-④-|
口口口口 |⑤-⑥-|
口口口口 |⑦-⑧-|
63
⑥⑤⑥⑤ |①-②-|
口口口口 |③-④-|
口③口① |⑤---|
④口②口 |⑥---|
64
口口口口 |①---|
口①①口 |----|
口③③口 |----|
口②②口 |②-③-|
65
口口口口 |--①-|
②口口① |②-③-|
④口口③ |④---|
口⑤口口 |--⑤-|
66
⑧口口⑦ |①-②-|
⑥口口⑤ |③-④-|
④口口③ |⑤-⑥-|
②口口① |⑦-⑧-|
67
口②②口 |①---|
口③③口 |②---|
口④④口 |③---|
口①①口 |④---|
68
①①①① |①---|
口口口口 |----|
口口口口 |②---|
②②②② |----|
69
①①①① |①---|
口口口口 |----|
口口口口 |----|
口口口口 |----|
70
⑦口口⑦ |①-②-|
口②①口 |③-④-|
口④③口 |⑤-⑥-|
口⑥⑤口 |⑦---|
71
⑦口口⑦ |①-②-|
口②①口 |③-④-|
口④③口 |⑤-⑥-|
口⑥⑤口 |⑦---|
72
⑦口口⑦ |①-②-|
口②①口 |③-④-|
口④③口 |⑤-⑥-|
口⑥⑤口 |⑦---|
73
④①①④ |①---|
口②②口 |②---|
口③③口 |③---|
口口口口 |④---|
74
口⑦⑦口 |①-②-|
②口口① |③-④-|
④口口③ |⑤-⑥-|
⑥口口⑤ |⑦---|
75
口⑦⑦口 |①-②-|
②口口① |③-④-|
④口口③ |⑤-⑥-|
⑥口口⑤ |⑦---|
76
口⑦⑦口 |①-②-|
②口口① |③-④-|
④口口③ |⑤-⑥-|
⑥口口⑤ |⑦---|
77
④④④④ |①--②|
①口口① |--③-|
口②②口 |④---|
③口口③ |----|

不確定度: 0

最終更新:2017年07月30日 19:07