ロンロンへ ライライライ!
ここなつ

EXTREME

Level: 9
BPM: 156
Notes: 727

1
口口口口 |----|
口口口口 |----|
口口口口 |----|
口口口口 |----|
2
口口①口 |①---|
②口口口 |②---|
口口口③ |③---|
口④口口 |④---|
3
口③③口 |①---|
口口②口 |②---|
口口①口 |③---|
口口口口 |----|
4
②口口② |①---|
口⑤口口 |②---|
口口④口 |③---|
①③③① |④-⑤-|
5
口①口口 |①---|
①口②口 |②---|
口②口③ |③---|
口口③口 |----|
6
③口口② |①---|
口④⑦口 |②-③-|
口⑥⑤口 |④-⑤-|
①口口① |⑥-⑦-|
7
口口③口 |①---|
②口口③ |②---|
①口口口 |③---|
口①②口 |----|
8
口口口口 |①-②-|
①⑥口口 |--③-|
②③⑤口 |④---|
口④口口 |⑤-⑥-|
9
口①口口 |①---|
①口②口 |②---|
口②口③ |③---|
口口③口 |----|
10
①口口口 |①---|
口口口口 |----|
口口口口 |②---|
口口②口 |----|
11
④④口口 |①---|
③口口口 |②---|
②③口④ |③---|
①②③④ |④---|
12
⑨⑨⑤⑥ |①②③④|
口②①⑤ |⑤-⑥-|
⑦④③口 |⑦-⑧-|
⑧⑦⑨⑨ |⑨---|
13
⑨⑨⑤⑥ |①②③④|
口②①⑤ |⑤-⑥-|
⑦④③口 |⑦-⑧-|
⑧⑦⑨⑨ |⑨---|
14
口口⑤⑥ |①②③④|
口②①⑤ |⑤-⑥-|
口④③口
口口口口

⑨⑨口口
口口⑪口
⑦口⑩口 |⑦-⑧-|
⑧⑦⑨⑨ |⑨-⑩⑪|
15
口口①⑦ |①---|
②口口口 |②---|
②口口⑦ |③④⑤⑥|
③④⑤⑥ |⑦---|
16
⑥⑤⑨⑨ |①②③④|
⑤①②口 |⑤-⑥-|
口③④⑦ |⑦-⑧-|
⑨⑨⑦⑧ |⑨---|
17
⑥⑤⑨⑨ |①②③④|
⑤①②口 |⑤-⑥-|
口③④⑦ |⑦-⑧-|
⑨⑨⑦⑧ |⑨---|
18
⑥⑤⑨⑨ |①②③④|
⑤①②口 |⑤-⑥-|
口③④⑦ |⑦-⑧-|
⑨⑨⑦⑧ |⑨---|
19
口④口④ |①--②|
口口①口 |--③-|
②口口口 |④---|
口口③口 |----|
20
口口⑤⑩ |①②③④|
⑨④③⑧ |⑤---|
⑦②①⑥ |⑥⑦⑧⑨|
口口口口 |⑩---|
21
口口⑤口 |①②③④|
口④③口 |⑤---|
口②①口 |----|
口口口口 |----|
22
口口⑤⑩ |①②③④|
⑨④③⑧ |⑤---|
⑦②①⑥ |⑥⑦⑧⑨|
口口口口 |⑩---|
23
口口口口 |①--②|
④①口④ |--③-|
口口口② |④---|
⑤③口⑤ |⑤---|
24
①①①① |①-②-|
⑥④口⑤ |③-④-|
⑧口③⑦ |⑤-⑥-|
口②口口 |⑦-⑧-|
25
口⑤②口 |--①-|
③④①口 |②---|
口⑤②口 |③-④-|
口口口口 |⑤---|
26
⑦口④⑧ |--①②|
口⑥①口 |③-④-|
②⑤口口 |⑤--⑥|
口口③口 |⑦-⑧-|
27
口③③口 |①---|
①口口② |②---|
①口口② |③---|
口②①口 |----|
28
⑤口口④ |--①②|
口⑦①口 |③-④-|
②口⑥⑧ |⑤-⑥-|
口⑨③口 |⑦⑧⑨-|
29
②①①口 |--①-|
口口口③ |--②-|
口④口口 |③-④-|
口口⑤口 |⑤---|
30
②口④③ |--①-|
①口口口 |②---|
②⑤口③ |③---|
口口口口 |④-⑤-|
31
①口口② |①---|
①口口② |②---|
③口口③ |③---|
口②①口 |----|
32
⑤口②口 |①-②③|
③口口口 |④-⑤-|
口口④口
①①①①

口⑥口口
口口⑦口
口⑧口口 |⑥-⑦-|
口口⑨口 |⑧-⑨-|
33
③口口⑥ |--①-|
①②⑤④ |②-③-|
③口口⑥ |④-⑤-|
口口口口 |⑥---|
34
口口口⑦ |--①-|
口口口⑥ |②-③-|
口口口⑤ |④-⑤-|
①②③④ |⑥-⑦-|
35
①①口④ |①---|
口③②④ |②---|
②④①口 |③---|
②口③③ |④---|
36
口④③口 |--①-|
口口②⑤ |②-③-|
⑥口①口 |④-⑤-|
口口⑦口 |⑥-⑦-|
37
⑥④口⑤ |--①②|
口①口口 |③-④-|
口⑦⑦② |⑤-⑥-|
口③口口 |⑦---|
38
⑧口口④ |①②③-|
⑧⑤①④ |④---|
②口口⑥ |⑤⑥⑦-|
口⑦③口 |⑧---|
39
口②①口 |①---|
③口口③ |②---|
③口口③ |③---|
①④④② |④---|
40
①①①① |①---|
口口④口 |②---|
口③口口 |③---|
②口口口 |④---|
41
①口口① |①---|
口口口口 |----|
口②口口 |②---|
口③口口 |③---|
42
口①口口 |①---|
口口②口 |②---|
口口口③ |③---|
口口口口 |----|
43
口口①口 |①---|
口②口口 |②---|
③口口口 |③---|
口⑤④口 |④-⑤-|
44
口口口口 |①---|
口④口口 |②---|
口①③口 |③---|
口口口② |④---|
45
①口口① |①---|
口口口口 |----|
口口②口 |②---|
口口③口 |③---|
46
口口口口 |①---|
口口口③ |②---|
口口②口 |③---|
口①口口 |----|
47
④口口④ |①---|
③口口口 |②---|
口②口口 |③---|
口口①口 |④---|
48
口④①口 |①-②-|
④⑤②① |③---|
⑤⑥③② |④-⑤-|
⑥口口③ |⑥---|
49
口口①口 |①-②-|
口口②① |③---|
口口③② |----|
口口口③ |----|
50
口①④口 |①-②-|
①②⑤④ |③---|
②③⑥⑤ |④-⑤-|
③口口⑥ |⑥---|
51
⑤④②口 |①--②|
⑤口③② |--③-|
①③口④ |④---|
口①⑤⑤ |⑤---|
52
口口②① |①---|
口①口② |②---|
②口①口
①②口口

③⑤口口
口④③口
口③④口 |③---|
口口⑤③ |④-⑤-|
53
口口①② |①-②-|
④⑤⑥③ |③-④-|
③口⑤④ |⑤---|
②①口口 |--⑥-|
54
口口口口 |①-②③|
③口口⑤ |-④-⑤|
口①口④
②口口口

⑩⑪⑨口
口⑥口口
⑪⑩⑦口 |⑥⑦⑧⑨|
口⑧口口 |-⑩-⑪|
55
⑥⑥口① |①-②-|
⑥口⑤② |③-④-|
口⑤口③ |⑤---|
口口口④ |⑥---|
56
口口②① |①---|
口①口② |②---|
②口①口
①②口口

③⑤口口
口④③口
口③④口 |③---|
口口⑤③ |④-⑤-|
57
口口①② |①-②-|
④口口③ |③-④-|
③口口④
②①口口

⑦口⑥口
口⑤口口
口口⑤口 |⑤---|
口⑥口⑦ |⑥-⑦-|
58
⑨③口④ |①-②③|
⑧口⑤口 |-④-⑤|
⑦②口口 |⑥-⑦-|
⑥口①口 |⑧-⑨-|
59
口①①① |①---|
口②口口 |②---|
口口①口
②②②口

④口④口
口口口③
④③口③ |③---|
口口口③ |④---|
60
口①口① |①---|
①口口② |②---|
口②口口
①口口②

③⑤口口
口④③口
③口④口 |③---|
口口⑤口 |④-⑤-|
61
口口①② |①-②-|
④⑤⑥③ |③-④-|
③口⑤④ |⑤---|
②①口口 |--⑥-|
62
口口口口 |①-②③|
③口口④ |-④⑤⑥|
口①口⑤
②口口⑥

⑪⑫⑩口
口⑦口口
⑫⑪⑧口 |⑦⑧⑨⑩|
口⑨口口 |-⑪-⑫|
63
⑥口⑥① |①-②-|
口⑤②口 |③-④-|
口口⑥③ |⑤---|
口⑤④⑤ |⑥---|
64
②口口① |①---|
口口③① |----|
①③口口 |----|
①口口② |②-③-|
65
④③②① |--①-|
口口⑤② |②-③-|
口口口③ |④---|
①口口④ |--⑤-|
66
⑥⑨⑨③ |①-②③|
口⑧⑧口 |-④-⑤|
⑤⑦⑦② |⑥-⑦-|
口①④口 |⑧-⑨-|
67
②口口① |①---|
口口口口 |②---|
口口口口
①口口②

口口口④
口口④③
口④口口 |③---|
④③口口 |④---|
68
①①①口 |①---|
①口口② |----|
①口口② |②---|
口②②② |----|
69
⑥⑤④③ |①---|
②①①② |②---|
口①①口 |③④⑤⑥|
口⑦⑦口 |⑦---|
70
⑨⑨⑤⑥ |①②③④|
口②①⑤ |⑤-⑥-|
⑦④③口 |⑦-⑧-|
⑧⑦⑨⑨ |⑨---|
71
⑨⑨⑤⑥ |①②③④|
口②①⑤ |⑤-⑥-|
⑦④③口 |⑦-⑧-|
⑧⑦⑨⑨ |⑨---|
72
口口⑤⑥ |①②③④|
口②①⑤ |⑤-⑥-|
口④③口
口口口口

⑨⑨口口
口口⑪口
⑦口⑩口 |⑦-⑧-|
⑧⑦⑨⑨ |⑨-⑩⑪|
73
口口①⑦ |①---|
②口口口 |②---|
②口口⑦ |③④⑤⑥|
③④⑤⑥ |⑦---|
74
⑥⑤⑨⑨ |①②③④|
⑤①②口 |⑤-⑥-|
口③④⑦ |⑦-⑧-|
⑨⑨⑦⑧ |⑨---|
75
⑥⑤⑨⑨ |①②③④|
⑤①②口 |⑤-⑥-|
口③④⑦ |⑦-⑧-|
⑨⑨⑦⑧ |⑨---|
76
⑥⑤⑨⑨ |①②③④|
⑤①②口 |⑤-⑥-|
口③④⑦ |⑦-⑧-|
⑨⑨⑦⑧ |⑨---|
77
③④⑤④ |①--②|
②⑤①口 |--③-|
①⑤②口 |④---|
口⑤③口 |⑤---|

不確定度: 0

最終更新:2017年07月30日 19:06