ポメグラネイト
ここなつ

BASIC

Level: 3
BPM: 130
Notes: 222

1
口口口口 |----|
口口口口 |----|
口口口口 |----|
口口口口 |----|
2
口口口口 |----|
口口口口 |----|
口口口口 |----|
口口口口 |----|
3
口口口口 |①---|
口口口口 |----|
口①①口 |②---|
②口口口 |----|
4
口口口口 |①---|
口口口口 |----|
口口①口 |②---|
口口口② |----|
5
口口口口 |①---|
口口口口 |----|
口①口口 |②---|
②口口口 |----|
6
口口口口 |①---|
口口口口 |----|
口口①口 |②---|
口口口② |----|
7
口口口口 |①---|
口口口口 |②---|
口③④口 |③---|
口①②口 |④---|
8
口③④口 |①---|
口①②口 |②---|
口口口口 |③---|
口口口口 |④---|
9
⑦口口⑧ |①-②-|
⑤口口⑥ |③-④-|
③口口④ |⑤-⑥-|
①口口② |⑦-⑧-|
10
⑦口口口 |①-②-|
⑤口口⑥ |③-④-|
③口口④ |⑤-⑥-|
①口口② |⑦---|
11
口口①① |①---|
口②口口 |②---|
口口③口 |③---|
口④口口 |④---|
12
口④口口 |①---|
口口③口 |②---|
口②口口 |③---|
口口①口 |④---|
13
口口①口 |①---|
口②口口 |②---|
口口③口 |③---|
口④口口 |④---|
14
口④口口 |①---|
口口③口 |②---|
口②口口 |③---|
口口①口 |④---|
15
口口①① |①---|
②口口口 |②---|
口口口③ |③---|
④口口口 |④---|
16
④口口口 |①---|
口口口③ |②---|
②口口口 |③---|
口口口① |④---|
17
口口口① |①---|
②口口口 |②---|
口口口③ |③---|
④口口口 |④---|
18
口③③口 |①---|
口②①口 |--②-|
口②①口 |----|
口口口口 |③---|
19
①口口口 |①---|
口口②口 |②---|
③口口口 |③---|
口口④口 |④---|
20
口口④口 |①---|
③口口口 |②---|
口口②口 |③---|
①口口口 |④---|
21
口①口口 |①---|
口口口② |②---|
口③口口 |③---|
口口口④ |④---|
22
口口口④ |①---|
口③口口 |②---|
口口口② |③---|
口①口口 |④---|
23
①口口口 |①---|
口口②口 |②---|
③口口口 |③---|
口口④口 |④---|
24
口口④口 |①---|
③口口口 |②---|
口口②口 |③---|
①口口口 |④---|
25
口①口口 |①---|
口口口② |②---|
口③口口 |③---|
口口口④ |④---|
26
口口口口 |①---|
②①①② |--②-|
②口口②
口口口口

口口口口
口③口口
口口口口 |----|
口口口口 |③---|
27
口①口口 |①---|
口口②口 |--②-|
口③口口 |----|
口口口口 |③---|
28
口口口口 |----|
口口口口 |----|
口口口口 |①---|
口②①口 |②---|
29
口口口口 |①---|
口口口口 |----|
口②口口 |----|
①口口口 |②---|
30
口口口口 |①---|
口口口口 |----|
口口①口 |----|
口口口口 |----|
31
口口口口 |①---|
④③②① |②---|
口口口口 |③---|
口口口口 |④---|
32
口口口口 |①---|
口口口口 |②---|
①②③④ |③---|
口口口口 |④---|
33
口口口口 |①---|
口口口口 |②---|
口③④口 |③---|
口②①口 |④---|
34
口口口口 |①---|
①③口① |----|
口②②口 |②---|
口口口口 |③---|
35
①口口② |①---|
口口口口 |----|
口口口口 |②---|
口口口口 |----|
36
口口口口 |①---|
口口口口 |----|
①口口② |②---|
口口口口 |----|
37
口口口口 |①---|
①口口② |----|
口口口口 |②---|
口口口口 |----|
38
口口口口 |①---|
口③④口 |②---|
口②①口 |③---|
口口口口 |④---|
39
口口口① |①---|
口口口口 |----|
②口口口 |②---|
口口口口 |----|
40
②口口口 |①---|
口口口口 |----|
口口口① |②---|
口口口口 |----|
41
口口口口 |①---|
②②①① |----|
口口口口 |②---|
口口口口 |----|
42
口①①口 |①---|
口口口口 |----|
口②②口 |②---|
口口口口 |----|
43
口口口口 |①---|
口口口口 |②---|
口④③口 |③---|
②口口① |④---|
44
口④③口 |①---|
②口口① |②---|
口口口口 |③---|
口口口口 |④---|
45
②口口① |①---|
口④③口 |②---|
口口口口 |③---|
口口口口 |④---|
46
口口口口 |①---|
口口口口 |②---|
②口口① |③---|
口④③口 |④---|
47
口口口口 |①---|
②口口① |----|
口②①口 |②---|
口口口口 |----|
48
口口口口 |①---|
口①①口 |----|
口口口口 |②---|
口②②口 |----|
49
口口口口 |①---|
口④②口 |②---|
③口口① |③---|
口口口口 |④---|
50
①①①① |①---|
口口口口 |----|
口②②口 |②---|
口口口口 |----|
51
口③②口 |①---|
④口口① |②---|
口口口口 |③---|
口口口口 |④---|
52
口口口口 |①---|
口口口口 |②---|
①口口④ |③---|
口②③口 |④---|
53
口口口口 |①---|
口②③口 |②---|
口④①口 |③---|
口口口口 |④---|
54
口口口口 |①---|
口②③口 |②---|
口④①口 |③---|
口口口口 |④---|
55
口②③口 |①---|
①口口④ |②---|
口口口口 |③---|
口口口口 |④---|
56
口口口口 |①---|
口口口口 |②---|
④口口① |③---|
口③②口 |④---|
57
口口口口 |①---|
口③②口 |②---|
口①④口 |③---|
口口口口 |④---|
58
④口口④ |①---|
③口口③ |②---|
②口口② |③---|
①口口① |④---|
59
口口口口 |①---|
口①①口 |----|
口口口口 |----|
口口口口 |----|

不確定度: 0

最終更新:2016年06月11日 18:18