ポメグラネイト
ここなつ

ADVANCED

Level: 7
BPM: 130
Notes: 445

1
口口口口 |----|
口口口口 |----|
口口口口 |----|
口口口口 |----|
2
口口口口 |----|
②③③① |----|
口②①口 |①--②|
口口口口 |--③-|
3
口口口口 |①---|
②口口口 |②-③-|
口③口口
口①①口

口口口口
口⑤④口
口口口口 |--④-|
口口⑥口 |⑤-⑥-|
4
口口口口 |①---|
口口口② |②-③-|
口口③口
口①口口

口口口口
口④⑤口
口口口口 |--④-|
口⑥口口 |⑤-⑥-|
5
口口口口 |①---|
②口口口 |②-③-|
口③口口
口口①口

口口口口
口⑤④口
口口口口 |--④-|
口口⑥口 |⑤-⑥-|
6
⑥口口⑤ |①---|
④⑥⑤② |②-③-|
口④③口 |④--⑤|
口①口口 |--⑥-|
7
口⑧⑦口 |①-②-|
口⑥⑤口 |③-④-|
口④③口 |⑤-⑥-|
口②①口 |⑦-⑧-|
8
口⑧⑦口 |①-②-|
口⑥⑤口 |③-④-|
口④③口 |⑤-⑥-|
口②①口 |⑦-⑧-|
9
⑯⑮⑭⑬ |①②③④|
⑫⑪⑩⑨ |⑤⑥⑦⑧|
⑧⑦⑥⑤ |⑨⑩⑪⑫|
④③②① |⑬⑭⑮⑯|
10
口口口口 |①②③④|
口口口口 |⑤⑥⑦⑧|
⑧⑦⑥⑤
④③②①

口口口口
⑫⑪⑩⑨
口口口口 |⑨⑩⑪⑫|
口口⑬⑬ |⑬---|
11
④口口③ |①-②-|
口⑤②⑧ |③-④-|
①⑦⑥① |⑤-⑥⑦|
口口口口 |--⑧-|
12
口口口口 |①-②③|
①口口口 |--④-|
口口口④
口③②口

口口口口
⑦口⑧⑥
⑤口口口 |⑤-⑥-|
口口口口 |⑦-⑧-|
13
②口口③ |--①-|
⑦①④口 |②-③-|
口⑤⑥口 |④-⑤⑥|
口口口口 |--⑦-|
14
口口口口 |①-②③|
口口口① |--④-|
④口口口
口②③口

口口口口
⑥⑧口⑦
口口口⑤ |⑤-⑥-|
口口口口 |⑦-⑧-|
15
③口口② |--①-|
口④①⑦ |②-③-|
口⑥⑤口 |④-⑤⑥|
口口口口 |--⑦-|
16
口口口口 |①-②③|
①口口口 |--④-|
口口口④
口③②口

口口口口
⑦口⑧⑥
⑤口口口 |⑤-⑥-|
口口口口 |⑦-⑧-|
17
②口口③ |--①-|
⑦①④口 |②-③-|
口⑤⑥口 |④-⑤⑥|
口口口口 |--⑦-|
18
⑥②③⑥ |①--②|
④②③① |--③-|
④⑤⑤① |-④--|
口口口口 |⑤-⑥-|
19
口②③口 |--①-|
口④①⑦ |②-③-|
口⑥⑤口 |④-⑤⑥|
口口口口 |--⑦-|
20
口口口口 |①-②③|
①口口口 |--④-|
口口口④
口③②口

口口口口
⑦口⑧⑥
⑤口口口 |⑤-⑥-|
口口口口 |⑦-⑧-|
21
口③②口 |--①-|
⑦①④口 |②-③-|
口⑤⑥口 |④-⑤⑥|
口口口口 |--⑦-|
22
口口口口 |①-②③|
口口口① |--④-|
④口口口
口②③口

口口口口
⑥⑧口⑦
口口口⑤ |⑤-⑥-|
口口口口 |⑦-⑧-|
23
口②③口 |--①-|
口④①⑦ |②-③-|
口⑥⑤口 |④-⑤⑥|
口口口口 |--⑦-|
24
口口口口 |①-②③|
①口口口 |--④-|
口口口④
口③②口

口口口口
⑦口⑧⑥
⑤口口口 |⑤-⑥-|
口口口口 |⑦-⑧-|
25
口③②口 |--①-|
⑦①④口 |②-③-|
口⑤⑥口 |④-⑤⑥|
口口口口 |--⑦-|
26
②口口① |①--②|
⑥③③口 |--③-|
②口⑤① |④---|
④口口④ |⑤-⑥-|
27
②①②① |①---|
口口口口 |--②-|
口③③口 |----|
口口口口 |③---|
28
口口口口 |----|
③④②① |--①-|
口口⑤口 |②-③-|
口口口口 |④-⑤-|
29
口②①口 |①---|
口口③口 |----|
口④口口 |--②-|
口口口口 |③-④-|
30
口口口① |①---|
口口口口 |----|
口④②口 |--②-|
口口③口 |③-④-|
31
口口口口 |①---|
口口口口 |②---|
③④⑤⑥ |③-④-|
口①口② |⑤-⑥-|
32
③口④口 |①---|
口①口② |②---|
口口口口 |③---|
口口口口 |④---|
33
口口口口 |①-②-|
口①②口 |③-④-|
口口口③
口口④口

口口口口
口⑦⑧口
⑥口口口 |⑤-⑥-|
口⑤口口 |⑦-⑧-|
34
②口口② |①---|
口④口口 |----|
③①①口 |②---|
口口口口 |③-④-|
35
③口①口 |①---|
口口②口 |--②-|
③④①口 |③---|
口口口口 |--④-|
36
口口口口 |①---|
③④口① |--②-|
口④②口 |③---|
③口口① |--④-|
37
口口口④ |①---|
口⑤①口 |--②-|
②③①口 |③-④-|
口口口⑥ |⑤-⑥-|
38
③口口口 |①-②-|
口口②口 |③-④-|
口口④口
①口口口

口口口口
⑤口⑦⑤
⑥口口⑥ |⑤---|
口口口口 |⑥-⑦-|
39
口①口③ |①---|
口②④口 |--②-|
口①口③ |③---|
口口口口 |--④-|
40
①口③口 |①---|
④②口口 |--②-|
①口口⑤ |③-④-|
口⑥口口 |⑤-⑥-|
41
口③③口 |①---|
④②②④ |②---|
口①①口 |③---|
口口口口 |④---|
42
①口口① |①---|
③③②② |--②-|
①口口① |③---|
口④④口 |④---|
43
②④⑥⑧ |①-②-|
口口口口 |③-④-|
①③⑤⑦ |⑤-⑥-|
口口口口 |⑦-⑧-|
44
口口口口 |①-②-|
②④⑥⑧ |③-④-|
口口口口 |⑤-⑥-|
①③⑤⑦ |⑦-⑧-|
45
口②④⑥ |①-②-|
口⑦口口 |③-④-|
①⑤口③ |⑤-⑥-|
口口口⑧ |⑦-⑧-|
46
③口口口 |①-②-|
⑤口②⑤ |③-④-|
⑥口④⑥ |⑤---|
①口口口 |⑥---|
47
⑤④①② |①-②-|
口④①口 |--③-|
口⑥③口 |④-⑤-|
口口口口 |--⑥-|
48
②口口② |①---|
口③③④ |②---|
口口⑤口 |③---|
①口口① |④-⑤-|
49
口口口口 |①---|
口④④口 |②---|
②口口② |③---|
③①口③ |④---|
50
①口口① |①---|
①口口① |②---|
③口口③ |③--④|
⑤②②④ |--⑤-|
51
口口口口 |①---|
①①②② |②---|
口⑤④口 |③-④-|
③口口⑥ |⑤-⑥-|
52
⑥口口⑤ |①-②-|
⑥口⑦⑤ |③-④-|
③口口② |⑤--⑥|
口①④口 |--⑦-|
53
口口口口 |①-②-|
⑧口⑥口 |③-④-|
①⑦③⑤ |⑤-⑥-|
口②口④ |⑦-⑧-|
54
①②④③ |①-②-|
口⑤口⑥ |③-④-|
⑥口⑤口 |⑤---|
口口口口 |⑥---|
55
③②②④ |①---|
③⑤口④ |②---|
口口口口 |③--④|
口①①口 |--⑤-|
56
⑥口口⑤ |①-②-|
⑥口⑦⑤ |③-④-|
④③②① |⑤--⑥|
口口口口 |--⑦-|
57
口口口口 |①-②-|
口⑥口⑧ |③-④-|
⑤③⑦① |⑤-⑥-|
④口②口 |⑦-⑧-|
58
④口口④ |①---|
口③③口 |②---|
②口口② |③---|
口①①口 |④---|
59
口口口口 |①---|
口口口口 |----|
口口口口 |----|
口①①口 |----|

不確定度: 0

最終更新:2016年06月11日 18:18