ポメグラネイト
ここなつ

EXTREME

Level: 9
BPM: 130
Notes: 668

1
口口口口 |----|
口口口口 |----|
口口口口 |----|
口口口口 |----|
2
口口口口 |----|
②③③① |----|
①③③② |①--②|
①口口② |--③-|
3
③④口② |①-②-|
口口口⑥ |③④⑤⑥|
口口口⑤
口①①口

口口口口
口⑩口口
⑦⑪⑨口 |-⑦⑧⑨|
⑬⑧⑫口 |⑩⑪⑫⑬|
4
②③⑤④ |①-②③|
⑦口口口 |④⑤⑥⑦|
⑥口口①
口口口口

口口口口
口口⑪口
口⑩⑫⑧ |-⑧⑨⑩|
口⑬⑨⑭ |⑪⑫⑬⑭|
5
③④口② |①-②-|
口口口⑥ |③④⑤⑥|
①口口⑤
口口口口

口口口口
口⑩口口
⑦⑪⑨口 |-⑦⑧⑨|
⑬⑧⑫口 |⑩⑪⑫⑬|
6
②③⑤④ |①-②③|
⑦口口口 |④⑤⑥⑦|
⑥口口①
口口口口

口口口⑮
口⑫口⑧
口⑭⑪⑨ |⑧⑨⑩⑪|
⑩口⑬口 |⑫⑬⑭⑮|
7
①④口④ |①---|
①口②④ |②---|
①③口② |③---|
③口③② |④---|
8
①口口口 |①---|
①①②口 |②---|
口口②口
口口②口

口④口④
口④口④
③口口口 |③---|
口③口③ |④---|
9
口口②口 |①②③④|
③⑦口口 |⑤⑥⑦⑧|
口①④⑥
口⑤⑧口

⑮⑪口⑭
口口⑫⑩
⑨⑬⑯口 |⑨⑩⑪⑫|
口口口口 |⑬⑭⑮⑯|
10
口⑦口口 |①②③④|
③口⑧⑥ |⑤⑥⑦⑧|
⑤口口②
①口④口

⑫口口口
口⑪口口
口⑬⑩口 |⑨⑩⑪⑫|
⑬⑬⑬⑨ |⑬---|
11
口①①口 |①-②-|
①口口① |③-④-|
口④③②
口口口口

口口口口
口口口⑦
⑤口⑧口 |⑤-⑥⑦|
口口口⑥ |--⑧-|
12
口⑧⑦口 |①-②③|
⑤口③⑥ |--④-|
口①口④ |⑤-⑥-|
口口②口 |⑦-⑧-|
13
口口口① |①-②-|
口口口口 |③-④-|
②③④口
口口口口

口口口口
⑦口口口
口⑧口⑤ |⑤-⑥⑦|
⑥口口口 |--⑧-|
14
⑥口⑦⑦ |①-②③|
⑧③口⑤ |--④-|
④口①口 |⑤-⑥-|
口②口口 |⑦-⑧-|
15
口口口口 |①-②-|
口口口口 |③-④-|
口④③②
①①①①

口口口口
口口口⑦
⑤口⑧口 |⑤-⑥⑦|
口口口⑥ |--⑧-|
16
口⑧⑦口 |①-②③|
⑤口③⑥ |--④-|
口①口④ |⑤-⑥-|
口口②口 |⑦-⑧-|
17
口口口① |①-②-|
口口口口 |③-④-|
②③④口
口口口口

口口口口
⑦口口口
口⑧口⑤ |⑤-⑥⑦|
⑥口口口 |--⑧-|
18
②②③口 |①--②|
③①口口 |--③-|
口口①③
口③②②

⑥口口⑥
口口④④
④④口口 |-④--|
⑤口口⑤ |⑤-⑥-|
19
口口口口 |①-②-|
口③口口 |③-④-|
口④③②
口①①口

口口口口
⑧口口⑦
⑤口⑨口 |⑤-⑥⑦|
口口口⑥ |⑧-⑨-|
20
口⑨⑧口 |①-②③|
⑥④③⑦ |④-⑤-|
口①口⑤ |⑥-⑦-|
口口②口 |⑧-⑨-|
21
口口口① |①-②-|
口口③口 |③-④-|
②③④口
口口口口

口口口口
⑦口口⑧
口⑨口⑤ |⑤-⑥⑦|
⑥口口口 |⑧-⑨-|
22
⑦口⑧⑧ |①-②③|
⑨③④⑥ |④-⑤-|
⑤口①口 |⑥-⑦-|
口②口口 |⑧-⑨-|
23
口口口口 |①-②-|
口③口口 |③-④-|
口④③②
①①①①

口口口口
⑧口口⑦
⑤口⑨口 |⑤-⑥⑦|
口口口⑥ |⑧-⑨-|
24
口⑨⑧口 |①-②③|
⑥④③⑦ |④-⑤-|
口①口⑤ |⑥-⑦-|
口口②口 |⑧-⑨-|
25
口口口① |①-②-|
口口③口 |③-④-|
②③④口
口口口口

口口口口
⑦口口⑧
口⑨口⑤ |⑤-⑥⑦|
⑥口口口 |⑧-⑨-|
26
口③③口 |①--②|
③①口③ |--③-|
②口①②
口②②口

口口口④
口口④口
口④⑥口 |④---|
⑤口口口 |⑤-⑥-|
27
口⑥②③ |①--②|
①①口口 |--③-|
口⑤口④ |-④--|
口口口口 |⑤--⑥|
28
②口口① |--①-|
口③口口 |--②-|
口⑥④口 |③-④-|
口口口⑤ |⑤-⑥-|
29
③口②口 |①--②|
口口①① |--③-|
④⑤⑦口 |-④⑤-|
口口⑥口 |⑥-⑦-|
30
②口①口 |①-②-|
口口口① |-③--|
③口口口
口口口口

口口口口
口⑦④⑤
口口⑥口 |④-⑤-|
口口口口 |⑥-⑦-|
31
口口口⑤ |①---|
④口⑥③ |②---|
①⑤口② |③-④-|
口口口① |⑤-⑥-|
32
口③①口 |①---|
②口口④ |②---|
③口口① |③---|
口②④口 |④---|
33
③口②口 |①-②-|
口③②口 |③-④-|
口口④④
①①口口

口口口⑧
⑤口⑨⑥
⑤口口口 |⑤-⑥-|
⑦⑦口⑥ |⑦-⑧⑨|
34
口口口口 |①---|
口口口口 |----|
口①口口
口口口口

口口口口
②⑥口口
②④口⑤ |②---|
②②②③ |③④⑤⑥|
35
④口口① |①---|
②④①② |②-③-|
⑤口③⑤ |④---|
口⑥口口 |⑤-⑥-|
36
口口口口 |①---|
口口④① |②-③④|
口③①口
②口口②

口口口口
⑤⑧口口
⑤口⑦口 |⑤---|
口⑥⑥口 |⑥-⑦⑧|
37
口口口④ |①---|
口口口① |②-③④|
③口口①
②口口②

口⑤口口
⑤⑧⑥口
口⑥口⑦ |⑤-⑥-|
口口⑦口 |⑦-⑧-|
38
口口口口 |①-②-|
口口口④ |③-④-|
②口③口
口①口口

口⑤⑤口
⑨口口口
⑧口口口 |⑤--⑥|
口⑥⑦口 |⑦-⑧⑨|
39
①⑥口⑤ |①---|
⑧口⑥④ |②-③④|
⑦口②③ |⑤---|
口②口口 |⑥-⑦⑧|
40
①口口口 |①---|
口②口④ |②-③④|
口口②③
口口口口

口口口⑤
⑥⑧口口
口口⑧口 |⑤-⑥-|
口口口⑦ |⑦-⑧-|
41
口②③口 |①---|
③④①② |②---|
①②③④ |③---|
口④①口 |④---|
42
⑦①口⑧ |①---|
⑨③①⑥ |②-③④|
⑤①④口 |⑤---|
②口①② |⑥⑦⑧⑨|
43
口⑧口口 |①②③④|
口⑥口⑦ |⑤⑥⑦⑧|
口④①⑤
②口③口

⑫口⑪⑬
⑭口⑨口
⑩⑯⑮口 |⑨⑩⑪⑫|
口口口口 |⑬⑭⑮⑯|
44
口口口口 |①②③④|
口④⑤口 |⑤⑥⑦⑧|
⑥口口③
⑧②⑦①

口⑫⑬口
⑩⑯口⑪
口⑭⑨⑮ |⑨⑩⑪⑫|
口口口口 |⑬⑭⑮⑯|
45
⑧口口口 |①②③④|
④口①⑤ |⑤⑥⑦⑧|
②口⑦口
⑥口③口

口口⑪⑨
⑭⑫⑬口
口⑩口口 |⑨⑩⑪⑫|
口⑭口口 |⑬-⑭-|
46
口口口口 |①-②-|
口④④② |③-④-|
口③①口
①口②③

⑤口口⑤
口口口口
口口口口 |⑤---|
口⑥⑥口 |⑥---|
47
口①口口 |①-②-|
①口②口 |③-④⑤|
口①口②
口⑤④③

口口⑥口
口⑦⑩⑥
⑦⑨⑥口 |⑥-⑦-|
⑧口口口 |⑧-⑨⑩|
48
③口口② |①---|
①②④口 |②---|
②⑤③① |③---|
口口口③ |④-⑤-|
49
口口口口 |①---|
③④④② |②---|
口口口口 |③---|
②口①③ |④---|
50
①口口① |①---|
④口口③ |②---|
①⑤⑤① |③--④|
④②②③ |--⑤-|
51
②口②② |①---|
口口口口 |②--③|
①口口①
③①①口

口⑥口口
口⑦④⑤
口⑧口口 |-④⑤-|
口⑨口口 |⑥⑦⑧⑨|
52
③口口口 |①-②-|
③口口口 |③-④-|
④口①②
口口口①

口口口口
口⑥⑧口
口⑦⑨口 |⑤-⑥⑦|
口口⑤口 |-⑧⑨-|
53
⑤口口⑤ |①②③④|
⑤口口⑤ |⑤---|
③口口④
①口口②

口⑥⑦口
口⑧⑨⑪
⑩口口口 |⑥⑦⑧⑨|
口⑩⑩口 |⑩-⑪-|
54
①②⑧⑦ |①②③④|
⑤⑥口口 |⑤⑥⑦⑧|
口口④③
口口口口

⑬口口口
口口⑫⑪
⑨⑩⑬口 |⑨⑩⑪⑫|
口口口口 |⑬---|
55
口②口② |①---|
口③②② |②-③④|
口④口口
①①①①

口口⑤口
⑥口⑦口
口口口⑤ |⑤--⑥|
口⑥⑦口 |--⑦-|
56
口①口口 |①-②③|
口口口口 |④⑤⑥⑦|
②③④⑤
⑥⑦口口

口口⑨口
⑩口⑪口
⑫口口口 |⑧-⑨⑩|
口口⑧口 |-⑪⑫-|
57
⑤口口① |①②③④|
口⑤口② |⑤-⑥-|
口口口③
⑥口口④

口⑭⑬口
口⑫⑪口
口⑩⑨口 |⑦⑧⑨⑩|
口⑧⑦口 |⑪⑫⑬⑭|
58
④口口② |①---|
③口口① |②---|
①④②③ |③---|
②口口④ |④---|
59
口①①口 |①---|
口①①口 |----|
口口口口 |----|
口口口口 |----|

不確定度: 0

最終更新:2016年06月11日 18:17