キミヱゴサーチ
ここなつ

BASIC

Level: 2
BPM: 120
Notes: 204

1
口口口口 |----|
口口口口 |----|
口口口口 |----|
口口口口 |----|
2
①口口口 |①---|
口②口口 |----|
口口口口 |②---|
口口口口 |----|
3
口口口口 |①---|
口口口口 |----|
口口①口 |②---|
口口口② |----|
4
口口口① |①---|
口口②口 |----|
口口口口 |②---|
口口口口 |----|
5
口口口口 |①---|
口口口口 |----|
口①口口 |②---|
②口口口 |----|
6
口口口口 |①---|
口口口口 |----|
①口口② |②---|
口口口口 |----|
7
口口口口 |①---|
①口口② |----|
口口口口 |②---|
口口口口 |----|
8
口②②口 |①--②|
口①①口 |----|
口口口口 |----|
口口口口 |----|
9
口口口口 |----|
口口口口 |----|
口口口口 |----|
口口口口 |----|
10
口口口口 |①---|
②③口口 |②---|
①④口口 |③---|
口口口口 |④---|
11
口口口口 |①---|
口口③② |②---|
口口④① |③---|
口口口口 |④---|
12
②口口口 |①---|
口①口口 |----|
口口口口 |②---|
口口口口 |----|
13
口口口② |①---|
口口①口 |----|
口口口口 |②---|
口口口口 |----|
14
口③①口 |①---|
口②④口 |②---|
口口口口 |③---|
口口口口 |④---|
15
口口口口 |①---|
口口口口 |②---|
口③①口 |③---|
口②④口 |④---|
16
口口口口 |①---|
口口口口 |②---|
④口口③ |③---|
②口口① |④---|
17
④口口③ |①---|
②口口① |②---|
口口口口 |③---|
口口口口 |④---|
18
口①③口 |①---|
口④②口 |②---|
口口口口 |③---|
口口口口 |④---|
19
口口口口 |①---|
口口口口 |②---|
口①③口 |③---|
口④②口 |④---|
20
口口口口 |①---|
口口口口 |②---|
③口口④ |③---|
①口口② |④---|
21
③口口④ |①---|
①口口② |②---|
口口口口 |③---|
口口口口 |④---|
22
口口口口 |①---|
口①①口 |----|
口口口② |②---|
口口口口 |----|
23
口口口口 |①---|
口口口口 |----|
口①①口 |②---|
②口口口 |----|
24
口口口口 |①---|
口口口口 |----|
②口口② |②---|
口①①口 |----|
25
②口口② |①---|
口①①口 |----|
口口口口 |②---|
口口口口 |----|
26
口口口口 |①---|
口①①口 |----|
口口口② |②---|
口口口口 |----|
27
口口口口 |①---|
口口口口 |----|
口①①口 |②---|
②口口口 |----|
28
口口口口 |①---|
口口口口 |----|
②口口② |②---|
口①①口 |----|
29
口口口口 |①---|
①①①① |----|
口口口口 |----|
口口口口 |----|
30
口口口① |①---|
口口②口 |②---|
口③口口 |③---|
口口口口 |----|
31
口口口口 |①---|
②口口② |----|
①口口① |②---|
口口口口 |----|
32
①口口口 |①---|
口②口口 |②---|
口口③口 |③---|
口口口口 |----|
33
口口口口 |①---|
②口口② |----|
①口口① |②---|
口口口口 |----|
34
口口口口 |①---|
口①②口 |----|
口②①口 |②---|
口口口口 |----|
35
②②②② |①---|
①口口① |----|
口口口口 |②---|
口口口口 |----|
36
口口口口 |①---|
①①口口 |----|
口口②② |②---|
口口口口 |----|
37
口口口口 |①---|
口口②② |----|
①①口口 |②---|
口口口口 |----|
38
口口口① |①---|
口口②口 |②---|
口③口口 |③---|
口口口口 |----|
39
口口口口 |①---|
②口口② |----|
①口口① |②---|
口口口口 |----|
40
①口口口 |①---|
口②口口 |②---|
口口③口 |③---|
口口口口 |----|
41
口口口口 |①---|
②口口② |----|
①口口① |②---|
口口口口 |----|
42
口口口口 |①---|
口①②口 |----|
口②①口 |②---|
口口口口 |----|
43
②②②② |①---|
①口口① |----|
口口口口 |②---|
口口口口 |----|
44
口口口口 |①---|
①①口口 |----|
口口②② |②---|
口口口口 |----|
45
口口口口 |①---|
口口②② |----|
①①口口 |②---|
口口口口 |----|
46
口口口口 |①---|
①①口口 |----|
口口②② |②---|
口口口口 |----|
47
口口口口 |①---|
口口②② |----|
①①口口 |②---|
口口口口 |----|
48
口口口口 |①---|
②③口口 |②---|
①④口口 |③---|
口口口口 |④---|
49
口口口口 |①---|
口口③② |②---|
口口④① |③---|
口口口口 |④---|
50
②口口口 |①---|
口①口口 |----|
口口口口 |②---|
口口口口 |----|
51
口口口② |①---|
口口①口 |----|
口口口口 |②---|
口口口口 |----|
52
口③①口 |①---|
口②④口 |②---|
口口口口 |③---|
口口口口 |④---|
53
口口口口 |①---|
口口口口 |②---|
口③①口 |③---|
口②④口 |④---|
54
口口口口 |①---|
口口口口 |②---|
④口口③ |③---|
②口口① |④---|
55
④口口③ |①---|
②口口① |②---|
口口口口 |③---|
口口口口 |④---|
56
口①③口 |①---|
口④②口 |②---|
口口口口 |③---|
口口口口 |④---|
57
口口口口 |①---|
口口口口 |②---|
口①③口 |③---|
口④②口 |④---|
58
口口口口 |①---|
口口口口 |②---|
③口口④ |③---|
①口口② |④---|
59
③口口④ |①---|
①口口② |②---|
口口口口 |③---|
口口口口 |④---|

不確定度: 0

最終更新:2016年06月10日 15:49