Prophet Vibe
Sota Fujimori feat.Calin

BASIC

Level: 4
BPM: 154
Notes: 296

1
口口口口 |----|
口口口口 |----|
口口口口 |----|
口口口口 |----|
2
口口口口 |①---|
口①①口 |----|
②口口② |②---|
口口口口 |----|
3
①口口① |①---|
口口口口 |----|
口口口口 |----|
②口口② |②---|
4
口口口口 |①---|
口①①口 |----|
②口口② |----|
口口口口 |②---|
5
①口口① |----|
口口口口 |----|
口口口口 |----|
口口口口 |①---|
6
口口口口 |①---|
口①②③ |②---|
口口口口 |③---|
口④④口 |--④-|
7
口①①口 |----|
口口口口 |--①-|
口口口口 |----|
口口口口 |----|
8
②口口② |①---|
口口口口 |----|
口口口口 |②---|
①口口① |----|
9
口②②口 |①---|
口口口口 |----|
口口口口 |②---|
口①①口 |----|
10
口口口口 |①---|
口①②③ |②---|
口口口口 |③---|
口④④口 |--④-|
11
口①①口 |----|
口口口口 |--①-|
口口口口 |----|
口口口口 |----|
12
②口口② |①---|
口口口口 |----|
口口口口 |②---|
①口口① |----|
13
口②②口 |①---|
③口口③ |----|
③口口③ |②---|
口①①口 |③---|
14
口口口口 |①---|
口口口口 |----|
口②②口 |②---|
口①①口 |----|
15
②口口③ |①---|
口①①口 |----|
口口口口 |②---|
口口口口 |③---|
16
口①①口 |①---|
口②②口 |----|
口口口口 |②---|
口口口口 |----|
17
口口口口 |①---|
口口口口 |----|
口①①口 |②---|
②口口② |----|
18
口口口口 |①---|
口口口口 |----|
口②②口 |②---|
口①①口 |----|
19
②口口③ |①---|
口①①口 |----|
口口口口 |②---|
口口口口 |③---|
20
口①①口 |①---|
口②②口 |----|
口口口口 |②---|
口口口口 |----|
21
②口口② |①---|
口口口口 |----|
口①①口 |②---|
口口口口 |----|
22
口口口口 |①---|
①②口口 |----|
口口口口 |②---|
口口口口 |----|
23
口口口③ |①---|
口口①口 |----|
口口口② |②---|
口口口口 |③---|
24
口口口口 |①---|
②③口口 |----|
口①①口 |--②-|
口口口口 |--③-|
25
口口口口 |--①-|
口口①② |--②-|
口口口口 |--③-|
口③③口 |----|
26
口①①口 |①---|
②口口口 |----|
口口口口 |----|
口口口口 |②---|
27
口口口口 |①---|
口口口① |②---|
②③④口 |③---|
口口口口 |④---|
28
口口口口 |①---|
口口口口 |----|
口②②① |----|
口口口口 |--②-|
29
口②②口 |--①-|
口①①口 |--②-|
口口口口 |----|
口口口口 |----|
30
口口口口 |①---|
①②口口 |----|
口口口口 |②---|
口口口口 |----|
31
口口口③ |①---|
口口①口 |----|
口口口② |②---|
口口口口 |③---|
32
口口口口 |①---|
②③口口 |----|
口①①口 |--②-|
口口口口 |--③-|
33
口口口口 |--①-|
口口①② |--②-|
口口口口 |--③-|
口③③口 |----|
34
口①①口 |①---|
②口口口 |----|
口口口口 |----|
口口口口 |②---|
35
口口口口 |①---|
口口口① |②---|
②③④口 |③---|
口口口口 |④---|
36
口口口口 |①---|
口口口口 |----|
口②②① |----|
口口口口 |--②-|
37
口②②口 |--①-|
③①①③ |--②-|
③口口③ |----|
口口口口 |③---|
38
②口口④ |①---|
口①③口 |②---|
口口口口 |③---|
口口口口 |④---|
39
④口口④ |①---|
③口口③ |②---|
口②②口 |③---|
口①①口 |④---|
40
口口口口 |①---|
口口口口 |----|
口口口口 |②---|
①口口② |----|
41
口②②口 |①---|
口口口口 |----|
口①①口 |②---|
口口口口 |----|
42
②口口④ |①---|
口①③口 |②---|
口口口口 |③---|
口口口口 |④---|
43
④口口④ |①---|
③口口③ |②---|
口②②口 |③---|
口①①口 |④---|
44
口口口口 |①---|
口口口口 |----|
口口口口 |②---|
①口口② |----|
45
口②②口 |①---|
口口口口 |----|
口①①口 |②---|
口口口口 |----|
46
②口口④ |①---|
口①③口 |②---|
口口口口 |③---|
口口口口 |④---|
47
④口口④ |①---|
③口口③ |②---|
口②②口 |③---|
口①①口 |④---|
48
口口口口 |①---|
口口口口 |----|
口口口口 |②---|
①口口② |----|
49
口②②口 |①---|
③口口③ |----|
口①①口 |②---|
口口口口 |③---|
50
②口口④ |①---|
口①③口 |②---|
口口口口 |③---|
口口口口 |④---|
51
④口口④ |①---|
③口口③ |②---|
口②②口 |③---|
口①①口 |④---|
52
口口口口 |①---|
口口口口 |----|
口口口口 |②---|
①口口② |----|
53
口②②口 |①---|
口口口口 |----|
口①①口 |②---|
口口口口 |----|
54
口口口口 |①---|
口①①口 |----|
②口口② |②---|
口口口口 |----|
55
①口口① |①---|
口口口口 |----|
口口口口 |----|
②口口② |②---|
56
口口口口 |①---|
口①①口 |----|
②口口② |----|
口口口口 |②---|
57
①口口① |----|
口口口口 |----|
口口口口 |----|
口口口口 |①---|
58
口口口口 |①---|
口①②③ |②---|
口口口口 |③---|
口④④口 |--④-|
59
口①①口 |----|
口口口口 |--①-|
口口口口 |----|
口口口口 |----|
60
②口口② |①---|
口口口口 |----|
口口口口 |②---|
①口口① |----|
61
口②②口 |①---|
口口口口 |----|
口口口口 |②---|
口①①口 |----|
62
口口口口 |①---|
口①②③ |②---|
口口口口 |③---|
口④④口 |--④-|
63
口①①口 |----|
口口口口 |--①-|
口口口口 |----|
口口口口 |----|
64
②口口② |①---|
口口口口 |----|
口口口口 |②---|
①口口① |----|
65
口②②口 |①---|
③口口③ |----|
③口口③ |②---|
口①①口 |③---|
66
①②口口 |①---|
口口口口 |----|
口口口口 |②---|
口口口口 |----|
67
口口口口 |①---|
口口②① |----|
口口口口 |②---|
口口口口 |----|
68
口口口口 |①---|
口口口口 |----|
口②②口 |②---|
口①①口 |----|
69
口②②口 |①---|
口①①口 |----|
口口口口 |②---|
口口口口 |----|
70
口口口口 |①---|
口②口口 |----|
①口口① |②---|
口口口口 |----|
71
口口口口 |①---|
口口①口 |----|
口口口口 |②---|
口②②口 |----|
72
口口口口 |①---|
口①②口 |----|
口口口口 |②---|
口口口口 |----|
73
口口口口 |①---|
口口口口 |----|
口①②口 |②---|
口口口口 |----|
74
口口口口 |①---|
①口口③ |②---|
②口口④ |③---|
口口口口 |④---|
75
口口口口 |①---|
口①①口 |----|
口口口口 |----|
口口口口 |----|
76
①口口③ |①---|
口口口口 |②---|
②口口④ |③---|
口口口口 |④---|
77
口口口口 |①---|
口①①口 |----|
口口口口 |----|
口口口口 |----|
78
口口口口 |①---|
口①①口 |----|
口口口口 |----|
口口口口 |----|


不确定度: 0

タグ:

+ タグ編集
  • タグ:

このサイトはreCAPTCHAによって保護されており、Googleの プライバシーポリシー利用規約 が適用されます。

最終更新:2012年11月10日 14:25